Виски Кавалер / Whiskey Cavalier / Сезон 1 / Серии 1-4 из 13 (Питер Атенсио) [2019, США, боевик, триллер, драма, комедия, приключения WEB-DLRip] MVO (LostFilm) + Original

Ответить на тему
Статистика раздачи
Размер:  2,28 GB   |    Зарегистрирован:  4 месяца 30 дней   |    Скачан:  0 раз

Полного источника не было: Никогда

   
 
Автор Сообщение

Рамфоринх ®

Пол: Не указан

Стаж: 5 месяцев 12 дней

Сообщений: 355

Создавать темы 24-Мар-2019 17:09

[Цитировать]

-Виски Кавалер / Whiskey Cavalier- Год выпуска: 2019
Страна: США
Жанр: боевик, триллер, драма, комедия, приключения
Продолжительность: ~ 43 мин.
Перевод:: Профессиональный (многоголосый закадровый) (LostFilm)-Режиссеры: Питер Атенсио, Джон Ист, Ромео Тироне
В ролях: Скотт Фоули, Лорен Кохэн, Ана Ортис, Тайлер Джеймс Уильямс, Вир Даc, Дилан Уолш, Джош Хопкинс, Дэвид Финн, Кристос Василопулос, Аликс Бенезек, Ядран Малжкович и др.-Описание: Агент ФБР Уилл Чейз, известный под кодовым именем Виски Кавалер, — парень что надо. Бьёт наотмашь, стреляет наповал и живёт жизнью, полной приключений. Одна проблема: Чейз сентиментален, регулярно поддаётся чувствам и даже может всплакнуть из-за бросившей его подружки. В напарники ему назначают оперативницу ЦРУ Франческу «Фрэнки» Троубридж. Она прагматична, бескомпромиссна и сопли пускать не будет.
Вместе с ней Чейз организует команду шпионов, периодически спасает мир, ищет баланс между флиртом и дружбой, а главное — учится не давать волю эмоциям. Последнее окажется почти невыполнимым.-Информационные ссылки: IMDb || Кинопоиск--Качество: WEB-DLRip
Формат: AVI (Сэмпл)
Видео: 720x400 (1.80:1), 23.976 fps, XviD build 50 ~1498 kbps avg, 0.22 bit/pixel
Аудио #1: 48 kHz, MPEG Layer 3, 2 ch, ~192.00 kbps avg (Rus)
Аудио #2: 48 kHz, MPEG Layer 3, 2 ch, ~192.00 kbps avg (Eng)
Субтитры: нет
Реклама: Отсутствует-Ссылка на предыдущие и альтернативные раздачи--MIОбщее
Полное имя : D:\Видео\Сериалы\400p\Whiskey Cavalier\Whiskey.Cavalier.S01E01.avi
Формат : AVI
Формат/Информация : Audio Video Interleave
Размер файла : 585 Мбайт
Продолжительность : 43 м. 7 с.
Общий поток : 1897 Кбит/сек
Программа кодирования : VirtualDubMod 1.5.10.2 (build 2540/release)
Библиотека кодирования : VirtualDubMod build 2540/release
Видео
Идентификатор : 0
Формат : MPEG-4 Visual
Профиль формата : Advanced Simple@L5
Настройки формата : BVOP1
Параметр BVOP формата : 1
Параметр QPel формата : Нет
Параметр GMC формата : Без точки перехода
Параметр матрицы формата : Default (H.263)
Идентификатор кодека : XVID
Идентификатор кодека/Подсказка : XviD
Продолжительность : 43 м. 7 с.
Битрейт : 1499 Кбит/сек
Ширина : 720 пикселей
Высота : 400 пикселей
Соотношение сторон : 16:9
Частота кадров : 23,976 (24000/1001) кадра/сек
Цветовое пространство : YUV
Субдискретизация насыщенности : 4:2:0
Битовая глубина : 8 бит
Тип развёртки : Прогрессивная
Метод сжатия : С потерями
Бит/(Пиксели*Кадры) : 0.217
Размер потока : 463 Мбайт (79%)
Библиотека кодирования : XviD 1.2.1 (UTC 2008-12-04)
Аудио #1
Идентификатор : 1
Формат : MPEG Audio
Версия формата : Version 1
Профиль формата : Layer 3
Настройки формата : Joint stereo
Идентификатор кодека : 55
Идентификатор кодека/Подсказка : MP3
Продолжительность : 43 м. 7 с.
Вид битрейта : Постоянный
Битрейт : 192 Кбит/сек
Каналы : 2 канала
Частота : 48,0 КГц
Частота кадров : 41,667 кадра/сек (1152 SPF)
Метод сжатия : С потерями
Размер потока : 59,2 Мбайт (10%)
Выравнивание : Соединение по промежуткам
Продолжительность промежутка : 42 мс. (1,00 видеокадр)
Время предзагрузки промежутка : 504 мс.
Библиотека кодирования : LAME3.99.5UUUUUUяяяя
Аудио #2
Идентификатор : 2
Формат : MPEG Audio
Версия формата : Version 1
Профиль формата : Layer 3
Настройки формата : Joint stereo / MS Stereo
Идентификатор кодека : 55
Идентификатор кодека/Подсказка : MP3
Продолжительность : 43 м. 7 с.
Вид битрейта : Постоянный
Битрейт : 192 Кбит/сек
Каналы : 2 канала
Частота : 48,0 КГц
Частота кадров : 41,667 кадра/сек (1152 SPF)
Метод сжатия : С потерями
Размер потока : 59,2 Мбайт (10%)
Выравнивание : Соединение по промежуткам
Продолжительность промежутка : 42 мс. (1,00 видеокадр)
Время предзагрузки промежутка : 504 мс.
Библиотека кодирования : LAME3.99.5

Скриншоты

Внимание! Раздача ведётся путём добавления новых серий

При очередном добавлении новой серии, создаётся новый торрент. Для того, чтобы скачать новую серию сезона, Вам необходимо сделать следующее:
1. Удалить старый торрент (лишь торрент, серии удалять не нужно),
2. Скачать новый торрент-файл и запустить его. ОБЯЗАТЕЛЬНО при этом указать клиенту путь в старую папку, где уже находятся предыдущие серии.
3. Ваш клиент производит хеширование старой папки и будет докачивать только те серии и субтитры, которых у Вас ещё нет. Старые серии при этом не удаляются.

Если ваш рейтинг упадет ниже 0,3, вы не сможете скачивать торренты! Подробнее о рейтинге.

[cybertorrent.ru].t1406.torrent 
Торрент: Зарегистрирован [ 2019-03-24 17:09 ] · 8D842B47D6C9DA3FB8962378F67C1264FF00B634

Скачать .torrent

Скачать

12 KB

Статус: проверено
Скачан: 0 раз
Размер: 2,28 GB
terms.php
[Профиль] [ЛС]
Показать сообщения:    
Ответить на тему

Текущее время: 24-Авг 15:37

Часовой пояс: UTC ± 0



Вы не можете начинать темы
Вы не можете отвечать на сообщения
Вы не можете редактировать свои сообщения
Вы не можете удалять свои сообщения
Вы не можете голосовать в опросах
Вы не можете прикреплять файлы к сообщениям
Вы можете скачивать файлы