Воспитание Аризоны / Похищение Аризоны / Raising Arizona (Джоэл Коэн / Joel Coen, Итан Коэн / Ethan Coen) [1987, США, Криминальная комедия, BDRip] AVO (Андрей Дольский) + Original Eng

Ответить на тему
Статистика раздачи
Размер:  1,46 GB   |    Зарегистрирован:  27 дней   |    Скачан:  0 раз

Полного источника не было: Никогда

   
 
Автор Сообщение

serzh ®

Пол: Не указан

Стаж: 1 месяц 9 дней

Сообщений: 115

Создавать темы 24-Мар-2019 17:09

[Цитировать]

Воспитание Аризоны / Похищение Аризоны / Raising Arizona
Страна: США
Жанр: Криминальная комедия
Год выпуска: 1987
Продолжительность: 01:34:06
Перевод: Авторский (одноголосый закадровый) Андрей Дольский
Субтитры: нет
Оригинальная аудиодорожка: английский
Режиссер: Джоэл Коэн / Joel Coen, Итан Коэн / Ethan Coen
В ролях: Николас Кейдж, Холли Хантер, Трей Уилсон, Джон Гудман, Уильям Форсайт, Сэм
МакМюррей, Фрэнсис МакДорманд, Рэндал «Текс» Кобб, Т.Дж. Кун, Линн Китей
Описание: Хай был мелким грабителем. Эдвина служила в полиции. Они встречались регулярно —
после того, как его в очередной раз хватали и везли в кутузку. А потом Хай и Эдвина поженились.
Эта странная пара была вполне счастлива, но у них не было детей, и тогда они решили похитить
младенца, чтобы было кого воспитывать…
Доп. информация: Дорожка с А. Дольским синхронизирована и наложена ale_x2008 при помощи Adobe Audition, Sony Vegas и VirtualDubMod.
За оцифрованную с VHS дорожку благодарим - Raptorio Rio
P.S. 01:29:24 - 01:30:51 - вставка с переводом DVO.

Релиз
Сэмпл: https://yadi.sk/i/5cTbUb0vxg-Edw
Качество видео: BDRip
Формат видео: AVI
Видео: XviD build 65, 704x384 (1.83:1), 23.976 fps, 1816 kbps avg, 0.28 bit/pixel
Аудио: AC3 Dolby Digital, 48000Hz, 2/0 (L,R) ch (mono), 192 kbps avg
Аудио 2: AC3 Dolby Digital, 48000Hz, 2/0 (L,R) ch, 192 kbps avg

MediaInfo

Воспитание Аризоны (Raising Arizona) [by ale_x2008].avi
Format : AVI
Format/Info : Audio Video Interleave
File size : 1.46 GiB
Duration : 1 h 34 min
Overall bit rate : 2 215 kb/s
Movie name : Воспитание Аризоны / Воспитывая Аризону / Raising Arizona (1987) BDRip
Director : by ale_x2008
Genre : комедия, криминал
Writing application : VirtualDubMod 1.5.10.2 (build 2540/release)
Copyright : Edich2
Comment : RuTracker.org
Video
ID : 0
Format : MPEG-4 Visual
Format profile : Advanced Simple@L5
Format settings : BVOP1 / Custom Matrix
Format settings, BVOP : 1
Format settings, QPel : No
Format settings, GMC : No warppoints
Format settings, Matrix : Custom
Codec ID : XVID
Codec ID/Hint : XviD
Duration : 1 h 34 min
Bit rate : 1 817 kb/s
Width : 704 pixels
Height : 384 pixels
Display aspect ratio : 1.85:1
Frame rate : 23.976 (24000/1001) FPS
Color space : YUV
Chroma subsampling : 4:2:0
Bit depth : 8 bits
Scan type : Progressive
Compression mode : Lossy
Bits/(Pixel*Frame) : 0.280
Stream size : 1.19 GiB (82%)
Writing library : XviD 65
Audio #1
ID : 1
Format : AC-3
Format/Info : Audio Coding 3
Codec ID : 2000
Duration : 1 h 34 min
Bit rate mode : Constant
Bit rate : 192 kb/s
Channel(s) : 2 channels
Channel positions : Front: L R
Sampling rate : 48.0 kHz
Frame rate : 31.250 FPS (1536 SPF)
Bit depth : 16 bits
Compression mode : Lossy
Stream size : 129 MiB (9%)
Alignment : Split accross interleaves
Interleave, duration : 42 ms (1.00 video frame)
Interleave, preload duratio : 500 ms
Service kind : Complete Main
Audio #2
ID : 2
Format : AC-3
Format/Info : Audio Coding 3
Codec ID : 2000
Duration : 1 h 34 min
Bit rate mode : Constant
Bit rate : 192 kb/s
Channel(s) : 2 channels
Channel positions : Front: L R
Sampling rate : 48.0 kHz
Frame rate : 31.250 FPS (1536 SPF)
Bit depth : 16 bits
Compression mode : Lossy
Stream size : 129 MiB (9%)
Alignment : Split accross interleaves
Interleave, duration : 42 ms (1.00 video frame)
Interleave, preload duratio : 500 ms
Service kind : Complete Main

Скриншоты


Если ваш рейтинг упадет ниже 0,3, вы не сможете скачивать торренты! Подробнее о рейтинге.

[cybertorrent.ru].t1407.torrent 
Торрент: Зарегистрирован [ 2019-03-24 17:09 ] · 56C4B576DF1F6F3E178641C5C31274E2701C0B5B

Скачать .torrent

Скачать

15 KB

Статус: проверено
Скачан: 0 раз
Размер: 1,46 GB
terms.php
[Профиль] [ЛС]
Показать сообщения:    
Ответить на тему

Текущее время: 21-Апр 14:31

Часовой пояс: UTC ± 0



Вы не можете начинать темы
Вы не можете отвечать на сообщения
Вы не можете редактировать свои сообщения
Вы не можете удалять свои сообщения
Вы не можете голосовать в опросах
Вы не можете прикреплять файлы к сообщениям
Вы можете скачивать файлы