Анатомия страсти / Grey's Anatomy / Сезон: 15 / Серии: 1-15 из 24 (Роб Корн, Дебби Аллен, Кевин МакКидд, Майкл Уоткинс) [2018, США, Драма, мелодрама, медицина, WEBRip] DVO (Gears Media) + Original

Ответить на тему
Статистика раздачи
Размер:  7,85 GB   |    Зарегистрирован:  5 месяцев 28 дней   |    Скачан:  0 раз

Полного источника не было: Никогда

   
 
Автор Сообщение

Рамфоринх ®

Пол: Не указан

Стаж: 6 месяцев 3 дня

Сообщений: 366

Создавать темы 18-Мар-2019 10:02

[Цитировать]

Анатомия страсти / Grey's Anatomy
Год выпуска: 2018
Страна: США
Жанр: Драма, мелодрама, медицина
Продолжительность: ~ 00:43:00
Перевод: Профессиональный (двухголосый закадровый)[Gears Media]
Режиссёр: Роб Корн, Дебби Аллен, Кевин МакКидд, Майкл Уоткинс, Сесиль А. Мосли, Шандра Уилсон, Николь Рубио, Криста Вернофф
В ролях: Эллен Помпео, Джастин Чэмберс, Чандра Уилсон, Джеймс Пикенс мл., Кевин МакКидд, Джесси Уильямс, Катерина Скорсоне, Камилла Ладдингтон, Келли МакКрири, Джакомо Джианниотти, Ким Рэйвер
Описание:
Непотопляемая медицинская драма от Шонды Раймс возвращается с юбилейным пятнадцатым сезоном. Создатели обещают, что он станет "сезоном любви". Значит ли, что блестящий хирург, преданная подруга и заботливая мать Мередит Грей вновь обретёт своё личное счастье? В мемориальной больнице Грей-Слоан, среди бесконечного потока тяжёлых пациентов и беспрестанно влюбляющихся друг в друга коллег найти его будет совсем непросто.
Ссылка на предыдущие и альтернативные раздачи: http://cybertorrent.ru/forum/tracker.php?nm=Grey%27s+Anatomy
Сэмпл: http://multi-up.com/1212067
Качество: WEBRip
Формат: AVI
Видео: XviD, 720x400 at 23.976 fps, ~1500 kbps avg
Аудио1: Russian, MP3, 48 kHz, 2 ch, 128 kbps
Аудио2: English, MP3, 48 kHz, 2 ch, 128 kbps
Субтитры: нет
Реклама: аудио (два раза, в начале и конце, по 12 сек.)

MediaInfo

Format : AVI
Format/Info : Audio Video Interleave
File size : 532 MiB
Duration : 43 min 3 s
Overall bit rate : 1 729 kb/s
Writing application : Lavf57.29.101
Video
ID : 0
Format : xvid
Codec ID : xvid
Duration : 43 min 3 s
Bit rate : 1 452 kb/s
Width : 720 pixels
Height : 400 pixels
Display aspect ratio : 16:9
Frame rate : 23.976 (24000/1001) FPS
Scan type : Progressive
Bits/(Pixel*Frame) : 0.210
Stream size : 447 MiB (84%)
Audio #1
ID : 1
Format : MPEG Audio
Format version : Version 1
Format profile : Layer 3
Format settings : Joint stereo / MS Stereo
Codec ID : 55
Codec ID/Hint : MP3
Duration : 43 min 3 s
Bit rate mode : Constant
Bit rate : 128 kb/s
Channel(s) : 2 channels
Sampling rate : 48.0 kHz
Compression mode : Lossy
Stream size : 39.4 MiB (7%)
Alignment : Aligned on interleaves
Interleave, duration : 24 ms (0.58 video frame)
Interleave, preload duratio : 24 ms
Title : Gears Media
Writing library : LAME3.99.5
Audio #2
ID : 2
Format : MPEG Audio
Format version : Version 1
Format profile : Layer 3
Format settings : Joint stereo / MS Stereo
Codec ID : 55
Codec ID/Hint : MP3
Duration : 43 min 3 s
Bit rate mode : Constant
Bit rate : 128 kb/s
Channel(s) : 2 channels
Sampling rate : 48.0 kHz
Compression mode : Lossy
Stream size : 39.4 MiB (7%)
Alignment : Aligned on interleaves
Interleave, duration : 24 ms (0.58 video frame)
Interleave, preload duratio : 24 ms
Writing library : LAME3.99.5

Скриншоты

Внимание! Раздача ведётся путём добавления новых серий

Внимание! Раздача ведётся путём добавления новых серий; при каждом добавлении создаётся новый торрент. Чтобы начать докачку новой серии, пользователям необходимо сделать следующее:
(1) остановить скачивание,
(2) удалить старый торрент у себя из клиента (старые серии удалять не надо),
(3) скачать новый торрент и запустить его у себя в клиенте вместо старого, при этом указать клиенту путь в старую папку куда и должно происходить скачивание новых серий.
Ваш клиент при этом должен произвести хеширование (проверку) старой папки (если не производит сам - помогите ему сделать это), и будет докачивать только те серии которых у вас ещё нет. Старые серии при этом не удаляются, а продолжают раздаваться!
Eсли вы уже удалили старые серии, то предотвратить повторную закачку старых серий можно, отжав галочку в соответствующих местах при запуске нового торрента. По возможности, желательно не удалять старые серии как можно дольше чтобы релизёр не столько продолжал раздавать старые серии, а смог сконцентрироваться на новых.
[cybertorrent.ru].t141.torrent 
Торрент: Зарегистрирован [ 2019-03-18 10:04 ] · C6D97807CD9A05B94830182D3F70126436AB24AC

Скачать .torrent

Скачать

41 KB

Статус: проверено
Скачан: 0 раз
Размер: 7,85 GB
terms.php
[Профиль] [ЛС]
Показать сообщения:    
Ответить на тему

Текущее время: 16-Сен 04:00

Часовой пояс: UTC ± 0



Вы не можете начинать темы
Вы не можете отвечать на сообщения
Вы не можете редактировать свои сообщения
Вы не можете удалять свои сообщения
Вы не можете голосовать в опросах
Вы не можете прикреплять файлы к сообщениям
Вы можете скачивать файлы

Партнеры

Выражаем благодарность всем людям, внесшим вклад в наш сайт в далёком прошлом. Мы помним Вас, гордимся Вами и ждём Вас обратно!

Интересное в сети