Родные руки / Серии: 1-2 из 2 (Андрей Хрулёв) [2019, криминал, мелодрама, WEBRip]

Ответить на тему
Статистика раздачи
Размер:  1,19 GB   |    Зарегистрирован:  28 дней   |    Скачан:  0 раз
Сидов:  45  [  0 KB/s  ]   Личеров:  1  [  0 KB/s  ]  
   
 
Автор Сообщение

sss777sss ®

Пол: Не указан

Стаж: 1 месяц 9 дней

Сообщений: 133

Создавать темы 24-Мар-2019 17:09

[Цитировать]

Родные руки
Год выпуска: 2019
Производство: Твин, Яуза-Фильм
Жанр: криминал, мелодрама
Продолжительность: ~00:45:00 серия
Субтитры: нет
Режиссёр: Андрей Хрулёв
В ролях: Анна Большова, Алексей Шутов, Сергей Пиотровский, Марта Дроздова, Валентин Лесик, Серафима Низовская, Андрей Стоянов, Олег Пышненко, Дмитрий Комов, Олег Филипчик
Описание: Арина и Денис женаты уже двадцать лет. Денис устраивается на хорошую должность в компанию, торгующую фруктами. Во время нападения на фуру, на которой Денис возвращается из командировки, выясняется, что на самом деле грузом были не бананы, а наркотики. Ни минуты не колеблясь, он идёт в полицию. А через некоторое время жене сообщают, что Денис погиб в аварии... Спустя год Арина переезжает жить в загородный дом, где за ней начинает ухаживать новый сосед – Игорь. Арине кажется, что она сходит с ума: у этого мужчины, совершенно не похожего на Дениса, его руки.

Реклама: Нет.
Кино-театр
Все раздачи сериала
Sample
Качество: WEBRip - Files-x
Формат: AVI
Видео кодек: XviD
Аудио кодек: AC3
Видео: 720x400 (1.80:1), 25 fps, XviD build 73 ~1600 kbps avg, 0.222 bit/pixel
Аудио: 48.0 kHz, AC3 Dolby Digital, 2/0 (L,R) ch, ~ 192 kbps

MI

General
Complete name : D:\Родные руки (2019)\01. Родные руки .2019. WEB-DLRip. Files-x.avi
Format : AVI
Format/Info : Audio Video Interleave
File size : 587 MiB
Duration : 45 min 35 s
Overall bit rate : 1 802 kb/s
Writing application : VirtualDubMod 1.5.10.3 | www.virtualdub-fr.org || (build 2550/release)
Writing library : VirtualDubMod build 2550/release
Video
ID : 0
Format : MPEG-4 Visual
Format profile : Advanced Simple@L5
Format settings : BVOP1 / Custom Matrix
Format settings, BVOP : 1
Format settings, QPel : No
Format settings, GMC : No warppoints
Format settings, Matrix : Custom
Codec ID : XVID
Codec ID/Hint : XviD
Duration : 45 min 35 s
Bit rate : 1 600 kb/s
Width : 720 pixels
Height : 400 pixels
Display aspect ratio : 16:9
Frame rate : 25.000 FPS
Color space : YUV
Chroma subsampling : 4:2:0
Bit depth : 8 bits
Scan type : Progressive
Compression mode : Lossy
Bits/(Pixel*Frame) : 0.222
Stream size : 522 MiB (89%)
Writing library : XviD 73
Audio
ID : 1
Format : AC-3
Format/Info : Audio Coding 3
Codec ID : 2000
Duration : 45 min 35 s
Bit rate mode : Constant
Bit rate : 192 kb/s
Channel(s) : 2 channels
Channel positions : Front: L R
Sampling rate : 48.0 kHz
Frame rate : 31.250 FPS (1536 SPF)
Bit depth : 16 bits
Compression mode : Lossy
Stream size : 62.6 MiB (11%)
Alignment : Split accross interleaves
Interleave, duration : 40 ms (1.00 video frame)
Interleave, preload duratio : 500 ms
Service kind : Complete Main

Скриншоты


Если ваш рейтинг упадет ниже 0,3, вы не сможете скачивать торренты! Подробнее о рейтинге.

[cybertorrent.ru].t1418.torrent 
Торрент: Зарегистрирован [ 2019-03-24 17:09 ] · 122313A4EEAEBB65051DB51918F5A5325EF8765B

Скачать .torrent

Скачать

12 KB

Статус: проверено
Скачан: 0 раз
Размер: 1,19 GB
terms.php
[Профиль] [ЛС]
Показать сообщения:    
Ответить на тему

Текущее время: 21-Апр 18:32

Часовой пояс: UTC ± 0



Вы не можете начинать темы
Вы не можете отвечать на сообщения
Вы не можете редактировать свои сообщения
Вы не можете удалять свои сообщения
Вы не можете голосовать в опросах
Вы не можете прикреплять файлы к сообщениям
Вы можете скачивать файлы