Снег и пепел / Серии: 1-4 из 4 (Александр Кириенко) [2015, детектив, военный, ВОВ, HDTV 1080i]

Ответить на тему
Статистика раздачи
Размер:  13,09 GB   |    Зарегистрирован:  25 дней   |    Скачан:  0 раз

Полного источника не было: Никогда

   
 
Автор Сообщение

sss777sss ®

Пол: Не указан

Стаж: 1 месяц 7 дней

Сообщений: 119

Создавать темы 24-Мар-2019 17:09

[Цитировать]

Снег и пепел
Производство: Кинокомпания "Грин-Фильм", Продюсерский Центр "ПРИОР продакшн", студия "ТелеМастер"
Жанр: детектив, военный, ВОВ
Год выпуска: 2015
Продолжительность: ~ 45:00
Субтитры: Отсутствуют
Режиссёр: Александр Кириенко
В ролях: Денис Шведов, Ольга Сутулова, Анатолий Белый, Константин Воробьёв, Даниил Спиваковский, Игнат Акрачков, Алёна Ивченко, Алексей Гришин, Алексей Красноцветов, Антонис Шаманиди, Яков Шамшин, Михаил Трясоруков, Игорь Мосюк, Игорь Вуколов, Сергей Бызгу, Александр Балсанов, Дмитрий Поднозов, Игорь Павлов (I), Игорь Головин, Андрей Полищук, Наталья Шапошникова, Любовь Макеева, Ромуальд Макаренко, Пётр Логачёв, Виктор Выбриенко
Описание: 1942 год. Крупное подразделение советских войск оказалось окружено немецкими войсками. Относительно спокойное и комфортное существование вот-вот закончится — немцы готовят наступление, подготовкой которого среди русских войск занят опасный диверсант. Чтобы разоблачить врага и сорвать планы немцев, НКВД присылает одного из своих лучших людей — майора Урусова. Вместе с ним прибывает команда из трёх курсантов. Все вместе они начинают расследование. Урусов и диверсант вступают в поединок — майор стремится вычислить противника, появляются новые подозреваемые, однако свидетели погибают один за другим, и уже готовые было версии разваливаются. Времени становится всё меньше — в лесу строится дорога для прохода немецкой бронетехники.
Доп. информация:
Автор релиза -
Источник - HDTV 1080i TS - моя запись с канала "Наше Крутое HD"
Рекламы нет!
Все раздачи сериала




Качество видео: HDTV 1080i
Формат видео: TS
Видео кодек: MPEG-4
Аудио кодек 1: МР2
Аудио кодек 2: AC3
Видео: 1920x1080 (16:9), 25.000 fps, ~9100 kbps, ~ 0.176 bit/pixel
Аудио 1: 48000 Гц, 2 ch, 192 kbps
Аудио 2: 48000 Гц, 6 ch, 448 kbps

MediaInfo

Общее
Идентификатор : 1 (0x1)
Полное имя : D:\Снег.и.пепел.2015.HDTV.1080i-ylnian\Снег.и.пепел.2015.HDTV.1080i-ylnian_1.ts
Формат : MPEG-TS
Размер файла : 3,14 Гбайт
Продолжительность : 44 м. 57 с.
Режим общего битрейта : Переменный
Общий поток : 9993 Кбит/сек
Видео
Идентификатор : 3531 (0xDCB)
Идентификатор меню : 17013 (0x4275)
Формат : AVC
Формат/Информация : Advanced Video Codec
Профиль формата : Main@L4
Настройки формата : CABAC / 3 Ref Frames
Параметр CABAC формата : Да
Параметр RefFrames формата : 3 кадра
Идентификатор кодека : 27
Продолжительность : 44 м. 57 с.
Битрейт : 8853 Кбит/сек
Ширина : 1920 пикселей
Высота : 1080 пикселей
Соотношение сторон : 16:9
Частота кадров : 25,000 кадров/сек
Цветовое пространство : YUV
Субдискретизация насыщенности : 4:2:0
Битовая глубина : 8 бит
Тип развёртки : Чересстрочная
Метод сохранения типа развёртки : Раздельные поля
Порядок развёртки : Верхнее поле первое
Бит/(Пиксели*Кадры) : 0.171
Размер потока : 2,78 Гбайт (89%)
Цветовой диапазон : Limited
Основные цвета : BT.709
Характеристики трансфера : BT.709
Коэффициенты матрицы : BT.709
Аудио #1
Идентификатор : 3532 (0xDCC)
Идентификатор меню : 17013 (0x4275)
Формат : MPEG Audio
Версия формата : Version 1
Профиль формата : Layer 2
Идентификатор кодека : 3
Продолжительность : 44 м. 57 с.
Вид битрейта : Постоянный
Битрейт : 192 Кбит/сек
Каналы : 2 канала
Частота : 48,0 КГц
Частота кадров : 41,667 кадра/сек (1152 SPF)
Метод сжатия : С потерями
Задержка видео : -80 мс.
Размер потока : 61,7 Мбайт (2%)
Язык : Russian
Аудио #2
Идентификатор : 3533 (0xDCD)
Идентификатор меню : 17013 (0x4275)
Формат : AC-3
Формат/Информация : Audio Coding 3
Коммерческое название : Dolby Digital
Идентификатор кодека : 6
Продолжительность : 44 м. 57 с.
Вид битрейта : Постоянный
Битрейт : 448 Кбит/сек
Каналы : 6 каналов
Channel layout : L R C LFE Ls Rs
Частота : 48,0 КГц
Частота кадров : 31,250 кадров/сек (1536 SPF)
Битовая глубина : 16 бит
Метод сжатия : С потерями
Задержка видео : -80 мс.
Размер потока : 144 Мбайт (4%)
Язык : Russian
ServiceKind/String : Complete Main
Общее
Идентификатор : 1 (0x1)
Полное имя : D:\Снег.и.пепел.2015.HDTV.1080i-ylnian\Снег.и.пепел.2015.HDTV.1080i-ylnian_2.ts
Формат : MPEG-TS
Размер файла : 3,09 Гбайт
Продолжительность : 44 м. 5 с.
Режим общего битрейта : Переменный
Общий поток : 10,0 Мбит/сек
Видео
Идентификатор : 3531 (0xDCB)
Идентификатор меню : 17013 (0x4275)
Формат : AVC
Формат/Информация : Advanced Video Codec
Профиль формата : Main@L4
Настройки формата : CABAC / 3 Ref Frames
Параметр CABAC формата : Да
Параметр RefFrames формата : 3 кадра
Идентификатор кодека : 27
Продолжительность : 44 м. 5 с.
Битрейт : 8902 Кбит/сек
Ширина : 1920 пикселей
Высота : 1080 пикселей
Соотношение сторон : 16:9
Частота кадров : 25,000 кадров/сек
Цветовое пространство : YUV
Субдискретизация насыщенности : 4:2:0
Битовая глубина : 8 бит
Тип развёртки : Чересстрочная
Метод сохранения типа развёртки : Раздельные поля
Порядок развёртки : Верхнее поле первое
Бит/(Пиксели*Кадры) : 0.172
Размер потока : 2,74 Гбайт (89%)
Цветовой диапазон : Limited
Основные цвета : BT.709
Характеристики трансфера : BT.709
Коэффициенты матрицы : BT.709
Аудио #1
Идентификатор : 3532 (0xDCC)
Идентификатор меню : 17013 (0x4275)
Формат : MPEG Audio
Версия формата : Version 1
Профиль формата : Layer 2
Идентификатор кодека : 3
Продолжительность : 44 м. 5 с.
Вид битрейта : Постоянный
Битрейт : 192 Кбит/сек
Каналы : 2 канала
Частота : 48,0 КГц
Частота кадров : 41,667 кадра/сек (1152 SPF)
Метод сжатия : С потерями
Задержка видео : -120 мс.
Размер потока : 60,6 Мбайт (2%)
Язык : Russian
Аудио #2
Идентификатор : 3533 (0xDCD)
Идентификатор меню : 17013 (0x4275)
Формат : AC-3
Формат/Информация : Audio Coding 3
Коммерческое название : Dolby Digital
Идентификатор кодека : 6
Продолжительность : 44 м. 5 с.
Вид битрейта : Постоянный
Битрейт : 448 Кбит/сек
Каналы : 6 каналов
Channel layout : L R C LFE Ls Rs
Частота : 48,0 КГц
Частота кадров : 31,250 кадров/сек (1536 SPF)
Битовая глубина : 16 бит
Метод сжатия : С потерями
Задержка видео : -120 мс.
Размер потока : 141 Мбайт (4%)
Язык : Russian
ServiceKind/String : Complete Main
Общее
Идентификатор : 1 (0x1)
Полное имя : D:\Снег.и.пепел.2015.HDTV.1080i-ylnian\Снег.и.пепел.2015.HDTV.1080i-ylnian_3.ts
Формат : MPEG-TS
Размер файла : 3,19 Гбайт
Продолжительность : 44 м. 49 с.
Режим общего битрейта : Переменный
Общий поток : 10,2 Мбит/сек
Видео
Идентификатор : 3531 (0xDCB)
Идентификатор меню : 17013 (0x4275)
Формат : AVC
Формат/Информация : Advanced Video Codec
Профиль формата : Main@L4
Настройки формата : CABAC / 3 Ref Frames
Параметр CABAC формата : Да
Параметр RefFrames формата : 3 кадра
Идентификатор кодека : 27
Продолжительность : 44 м. 49 с.
Битрейт : 9036 Кбит/сек
Ширина : 1920 пикселей
Высота : 1080 пикселей
Соотношение сторон : 16:9
Частота кадров : 25,000 кадров/сек
Цветовое пространство : YUV
Субдискретизация насыщенности : 4:2:0
Битовая глубина : 8 бит
Тип развёртки : Чересстрочная
Метод сохранения типа развёртки : Раздельные поля
Порядок развёртки : Верхнее поле первое
Бит/(Пиксели*Кадры) : 0.174
Размер потока : 2,83 Гбайт (89%)
Цветовой диапазон : Limited
Основные цвета : BT.709
Характеристики трансфера : BT.709
Коэффициенты матрицы : BT.709
Аудио #1
Идентификатор : 3532 (0xDCC)
Идентификатор меню : 17013 (0x4275)
Формат : MPEG Audio
Версия формата : Version 1
Профиль формата : Layer 2
Идентификатор кодека : 3
Продолжительность : 44 м. 49 с.
Вид битрейта : Постоянный
Битрейт : 192 Кбит/сек
Каналы : 2 канала
Частота : 48,0 КГц
Частота кадров : 41,667 кадра/сек (1152 SPF)
Метод сжатия : С потерями
Задержка видео : -40 мс.
Размер потока : 61,6 Мбайт (2%)
Язык : Russian
Аудио #2
Идентификатор : 3533 (0xDCD)
Идентификатор меню : 17013 (0x4275)
Формат : AC-3
Формат/Информация : Audio Coding 3
Коммерческое название : Dolby Digital
Идентификатор кодека : 6
Продолжительность : 44 м. 49 с.
Вид битрейта : Постоянный
Битрейт : 448 Кбит/сек
Каналы : 6 каналов
Channel layout : L R C LFE Ls Rs
Частота : 48,0 КГц
Частота кадров : 31,250 кадров/сек (1536 SPF)
Битовая глубина : 16 бит
Метод сжатия : С потерями
Задержка видео : -40 мс.
Размер потока : 144 Мбайт (4%)
Язык : Russian
ServiceKind/String : Complete Main
Общее
Идентификатор : 1 (0x1)
Полное имя : D:\Снег.и.пепел.2015.HDTV.1080i-ylnian\Снег.и.пепел.2015.HDTV.1080i-ylnian_4.ts
Формат : MPEG-TS
Размер файла : 3,67 Гбайт
Продолжительность : 48 м. 57 с.
Режим общего битрейта : Переменный
Общий поток : 10,7 Мбит/сек
Видео
Идентификатор : 3531 (0xDCB)
Идентификатор меню : 17013 (0x4275)
Формат : AVC
Формат/Информация : Advanced Video Codec
Профиль формата : Main@L4
Настройки формата : CABAC / 3 Ref Frames
Параметр CABAC формата : Да
Параметр RefFrames формата : 3 кадра
Идентификатор кодека : 27
Продолжительность : 48 м. 57 с.
Битрейт : 9552 Кбит/сек
Ширина : 1920 пикселей
Высота : 1080 пикселей
Соотношение сторон : 16:9
Частота кадров : 25,000 кадров/сек
Цветовое пространство : YUV
Субдискретизация насыщенности : 4:2:0
Битовая глубина : 8 бит
Тип развёртки : Чересстрочная
Метод сохранения типа развёртки : Раздельные поля
Порядок развёртки : Верхнее поле первое
Бит/(Пиксели*Кадры) : 0.184
Размер потока : 3,27 Гбайт (89%)
Цветовой диапазон : Limited
Основные цвета : BT.709
Характеристики трансфера : BT.709
Коэффициенты матрицы : BT.709
Аудио #1
Идентификатор : 3532 (0xDCC)
Идентификатор меню : 17013 (0x4275)
Формат : MPEG Audio
Версия формата : Version 1
Профиль формата : Layer 2
Идентификатор кодека : 3
Продолжительность : 48 м. 57 с.
Вид битрейта : Постоянный
Битрейт : 192 Кбит/сек
Каналы : 2 канала
Частота : 48,0 КГц
Частота кадров : 41,667 кадра/сек (1152 SPF)
Метод сжатия : С потерями
Задержка видео : -80 мс.
Размер потока : 67,2 Мбайт (2%)
Язык : Russian
Аудио #2
Идентификатор : 3533 (0xDCD)
Идентификатор меню : 17013 (0x4275)
Формат : AC-3
Формат/Информация : Audio Coding 3
Коммерческое название : Dolby Digital
Идентификатор кодека : 6
Продолжительность : 48 м. 57 с.
Вид битрейта : Постоянный
Битрейт : 448 Кбит/сек
Каналы : 6 каналов
Channel layout : L R C LFE Ls Rs
Частота : 48,0 КГц
Частота кадров : 31,250 кадров/сек (1536 SPF)
Битовая глубина : 16 бит
Метод сжатия : С потерями
Задержка видео : -80 мс.
Размер потока : 157 Мбайт (4%)
Язык : Russian
ServiceKind/String : Complete Main

Если ваш рейтинг упадет ниже 0,3, вы не сможете скачивать торренты! Подробнее о рейтинге.

[cybertorrent.ru].t1428.torrent 
Торрент: Зарегистрирован [ 2019-03-24 17:09 ] · 2E7826F7C8084B0C23F07B88B9EE2B94EB37458E

Скачать .torrent

Скачать

66 KB

Статус: проверено
Скачан: 0 раз
Размер: 13,09 GB
terms.php
[Профиль] [ЛС]
Показать сообщения:    
Ответить на тему

Текущее время: 19-Апр 15:16

Часовой пояс: UTC ± 0



Вы не можете начинать темы
Вы не можете отвечать на сообщения
Вы не можете редактировать свои сообщения
Вы не можете удалять свои сообщения
Вы не можете голосовать в опросах
Вы не можете прикреплять файлы к сообщениям
Вы можете скачивать файлы