Иштар / Ishtar (Илэйн Мэй / Elaine May) [1987, США, комедия, приключения, DVDRip-AVC] [uncut] DVO (НТВ+) + 2x AVO (Алексеев, Горчаков) + Sub Eng + Original Eng

Ответить на тему
Статистика раздачи
Размер:  2,07 GB   |    Зарегистрирован:  28 дней   |    Скачан:  0 раз

Полного источника не было: Никогда

   
 
Автор Сообщение

serzh ®

Пол: Не указан

Стаж: 1 месяц 9 дней

Сообщений: 116

Создавать темы 24-Мар-2019 17:09

[Цитировать]

Иштар / Ishtar
полная версия
Страна: США
Жанр: комедия, приключения
Год выпуска: 1987
Продолжительность: 01:43:07
Перевод: Профессиональный (двухголосый закадровый) НТВ+
Перевод 2: Авторский (одноголосый закадровый) Алексеев
Перевод 3: Авторский (одноголосый закадровый) Горчаков
Субтитры: английские
Оригинальная аудиодорожка: английский (отдельно)
Режиссер: Илэйн Мэй / Elaine May
В ролях: Уоррен Битти, Дастин Хоффман, Изабель Аджани, Чарльз Гродин, Джек Уэстон, Тесс Харпер, Кэрол Кейн, Фиджад Хагиб
Описание: Двое неудачливых, туповатых песенников, преимущественно лишенных таланта, слуха, голоса и музыкального вкуса (Уоррен Битти и Дастин Хоффман), уезжают из Нью-Йорка, где никому даром не нужны, исполнять свои шедевры в североафриканское Марокко. Однако вместо покорения музыкального Олимпа, втягиваются в международные геополитические игры США и СССР, связанные с борьбой за влияние на близлежащее государство Иштар и поиском некой древней карты со священным пророчеством, которое может взорвать Ближний Восток. Представительницу местного подполья, красавицу-коммунистку, полную возвышенных идеалов, играет Изабель Аджани.
Доп. информация: Это полная версия фильма. В отличие от порезанной режиссёрской, той, что вышла на БД.
Благодарю m.mamichev и Василий С за предоставленный чистый голос Антона Алексеева. Дорожка получена путём наложения на оба канала оригинальной. Впервые на трекере.
Сэмпл: https://yadi.sk/i/XBFck6G43aSlZw
Качество видео: DVDRip-AVC
Формат видео: MKV
Видео: AVC, 704x548@1000x548 (1.85:1), ~2100 kbps, 25 fps
Аудио: AC3, 48 khz, 2.0, 192 kbps - DVO НТВ+
Аудио 2: AC3, 48 khz, 2.0, 192 kbps - Антон Алексеев
Аудио 3: AC3, 48 khz, 2.0, 192 kbps - Василий Горчаков
Аудио 4: AC3, 48 khz, 2.0, 192 kbps - english (отдельно)
Формат субтитров: softsub (SRT)

MediaInfo

Общее
Уникальный идентификатор : 338096906187578964610957977795311569401 (0xFE5B18777B1D19C48C95A3D3590A09F9)
Полное имя : D:\Torrents\Ishtar [DVDRip-AVC 1987]\Ishtar [DVDRip-AVC 1987].mkv
Формат : Matroska
Версия формата : Version 4
Размер файла : 1,93 Гбайт
Продолжительность : 1 ч. 43 м.
Общий поток : 2676 Кбит/сек
Дата кодирования : UTC 2019-03-24 10:42:07
Программа кодирования : mkvmerge v19.0.0 ('Brave Captain') 32-bit
Библиотека кодирования : libebml v1.3.5 + libmatroska v1.4.8
Видео
Идентификатор : 1
Формат : AVC
Формат/Информация : Advanced Video Codec
Профиль формата : High@L4.1
Настройки формата : CABAC / 15 Ref Frames
Параметр CABAC формата : Да
Параметр RefFrames формата : 15 кадров
Идентификатор кодека : V_MPEG4/ISO/AVC
Продолжительность : 1 ч. 43 м.
Битрейт : 2098 Кбит/сек
Ширина : 704 пикселя
Высота : 548 пикселей
Соотношение сторон : 1,85:1
Режим частоты кадров : Постоянный
Частота кадров : 25,000 кадров/сек
Цветовое пространство : YUV
Субдискретизация насыщенности : 4:2:0
Битовая глубина : 8 бит
Тип развёртки : Прогрессивная
Бит/(Пиксели*Кадры) : 0.217
Размер потока : 1,51 Гбайт (78%)
Библиотека кодирования : x264 core 155 r2901 7d0ff22
Настройки программы : cabac=1 / ref=15 / deblock=1:-3:-3 / analyse=0x3:0x133 / me=umh / subme=10 / psy=1 / psy_rd=1.00:0.00 / mixed_ref=1 / me_range=32 / chroma_me=1 / trellis=2 / 8x8dct=1 / cqm=0 / deadzone=21,11 / fast_pskip=0 / chroma_qp_offset=-2 / threads=6 / lookahead_threads=1 / sliced_threads=0 / nr=0 / decimate=0 / interlaced=0 / bluray_compat=0 / constrained_intra=0 / bframes=6 / b_pyramid=2 / b_adapt=2 / b_bias=0 / direct=3 / weightb=1 / open_gop=0 / weightp=1 / keyint=250 / keyint_min=25 / scenecut=40 / intra_refresh=0 / rc_lookahead=60 / rc=crf / mbtree=0 / crf=19.4 / qcomp=0.60 / qpmin=0 / qpmax=69 / qpstep=4 / vbv_maxrate=62500 / vbv_bufsize=78125 / crf_max=0.0 / nal_hrd=none / filler=0 / ip_ratio=1.40 / pb_ratio=1.30 / aq=2:1.00
Default : Да
Forced : Нет
Цветовой диапазон : Limited
Основные цвета : BT.601 PAL
Характеристики трансфера : BT.709
Коэффициенты матрицы : BT.601
Аудио #1
Идентификатор : 2
Формат : AC-3
Формат/Информация : Audio Coding 3
Коммерческое название : Dolby Digital
Идентификатор кодека : A_AC3
Продолжительность : 1 ч. 43 м.
Вид битрейта : Постоянный
Битрейт : 192 Кбит/сек
Каналы : 2 канала
Channel layout : L R
Частота : 48,0 КГц
Частота кадров : 31,250 кадров/сек (1536 SPF)
Битовая глубина : 16 бит
Метод сжатия : С потерями
Размер потока : 142 Мбайт (7%)
Заголовок : DVO NTV+
Язык : Russian
ServiceKind/String : Complete Main
Default : Да
Forced : Нет
Аудио #2
Идентификатор : 3
Формат : AC-3
Формат/Информация : Audio Coding 3
Коммерческое название : Dolby Digital
Идентификатор кодека : A_AC3
Продолжительность : 1 ч. 43 м.
Вид битрейта : Постоянный
Битрейт : 192 Кбит/сек
Каналы : 2 канала
Channel layout : L R
Частота : 48,0 КГц
Частота кадров : 31,250 кадров/сек (1536 SPF)
Битовая глубина : 16 бит
Метод сжатия : С потерями
Размер потока : 142 Мбайт (7%)
Заголовок : AVO Alekseev
Язык : Russian
ServiceKind/String : Complete Main
Default : Нет
Forced : Нет
Аудио #3
Идентификатор : 4
Формат : AC-3
Формат/Информация : Audio Coding 3
Коммерческое название : Dolby Digital
Идентификатор кодека : A_AC3
Продолжительность : 1 ч. 43 м.
Вид битрейта : Постоянный
Битрейт : 192 Кбит/сек
Каналы : 2 канала
Channel layout : L R
Частота : 48,0 КГц
Частота кадров : 31,250 кадров/сек (1536 SPF)
Битовая глубина : 16 бит
Метод сжатия : С потерями
Размер потока : 142 Мбайт (7%)
Заголовок : AVO Gorchakov
Язык : Russian
ServiceKind/String : Complete Main
Default : Нет
Forced : Нет
Текст
Идентификатор : 5
Формат : UTF-8
Идентификатор кодека : S_TEXT/UTF8
Идентификатор кодека/Информация : UTF-8 Plain Text
Продолжительность : 1 ч. 38 м.
Битрейт : 76 бит/сек
ElementCount : 1324
Размер потока : 55,2 Кбайт (0%)
Язык : English
Default : Нет
Forced : Нет
Меню
00:00:00.000 : :Chapter 1
00:05:34.160 : :Chapter 2
00:11:30.240 : :Chapter 3
00:15:10.920 : :Chapter 4
00:20:51.600 : :Chapter 5
00:25:08.360 : :Chapter 6
00:30:23.960 : :Chapter 7
00:35:46.760 : :Chapter 8
00:40:42.600 : :Chapter 9
00:44:51.240 : :Chapter 10
00:51:36.280 : :Chapter 11
00:55:53.080 : :Chapter 12
00:59:36.120 : :Chapter 13
01:04:21.720 : :Chapter 14
01:10:30.720 : :Chapter 15
01:16:50.440 : :Chapter 16
01:23:32.040 : :Chapter 17
01:28:40.440 : :Chapter 18
01:34:00.840 : :Chapter 19
01:38:03.160 : :Chapter 20

Скриншот c названием фильма

Скриншоты

Если ваш рейтинг упадет ниже 0,3, вы не сможете скачивать торренты! Подробнее о рейтинге.

[cybertorrent.ru].t1429.torrent 
Торрент: Зарегистрирован [ 2019-03-24 17:09 ] · FF5B9C2FD6F4C2B5074C4A85EFAFFBF128F6E0B7

Скачать .torrent

Скачать

11 KB

Статус: проверено
Скачан: 0 раз
Размер: 2,07 GB
terms.php
[Профиль] [ЛС]
Показать сообщения:    
Ответить на тему

Текущее время: 22-Апр 02:30

Часовой пояс: UTC ± 0



Вы не можете начинать темы
Вы не можете отвечать на сообщения
Вы не можете редактировать свои сообщения
Вы не можете удалять свои сообщения
Вы не можете голосовать в опросах
Вы не можете прикреплять файлы к сообщениям
Вы можете скачивать файлы