Детство Шелдона / Молодой Шелдон / Young Sheldon / Сезон: 2 / Серии: 1-17 из 22 (Джаффар Махмуд, Ховард Дойч, Марк Сендроуски) [2018, США, комедия, WEBRip] DVO (Gears Media) + Original

Ответить на тему
Статистика раздачи
Размер:  4,07 GB   |    Зарегистрирован:  4 месяца 2 дня   |    Скачан:  0 раз

Полного источника не было: Никогда

   
 
Автор Сообщение

Рамфоринх ®

Пол: Не указан

Стаж: 4 месяца 8 дней

Сообщений: 319

Создавать темы 18-Мар-2019 10:02

[Цитировать]

Детство Шелдона / Молодой Шелдон / Young Sheldon
Год выпуска: 2018
Страна: США
Жанр: комедия
Продолжительность: ~ 00:20:00
Перевод: Профессиональный (двухголосый закадровый)[Gears Media]
Режиссёр: Джаффар Махмуд, Ховард Дойч, Марк Сендроуски
В ролях: Иэн Армитедж, Зои Перри, Лэнс Барбер, Монтана Джордан, Реган Реворд, Джим Парсонс, Энни Поттс, Даниэль Пиннок, Док Фэрроу, Валери Махаффей, Брайан Степанек, Уайатт МакКлюр, Мэтт Хобби, Сара Бэйкер, Бриэль Барбаска, Боб Ньюхарт, Рэй Лиотта, Дж. Энтони МакКарти, Илон Маск, Шэрон Фергюсон, Джейсон Кравиц и др.
Описание:
История о непростом детстве вундеркинда Шелдона Купера. Родители юного гения не разделяют увлечения сына наукой: его мать очень религиозна, а отец, бывший футбольный тренер, предпочитает проводить вечера в компании пива и телевизора. Со сверстниками тоже не ладится, ведь Шелдона куда больше детских игрушек интересует, где можно взять обогащённый уран для научных экспериментов.
Ссылка на предыдущие и альтернативные раздачи: http://cybertorrent.ru/forum/tracker.php?nm=Young%20Sheldon
Сэмпл: http://multi-up.com/1212446
Качество: WEBRip
Формат: AVI
Видео: XviD, 720x400 at 23.976 fps, ~1500 kbps avg
Аудио1: Russian, MP3, 48 kHz, 2 ch, 128 kbps
Аудио2: English, MP3, 48 kHz, 2 ch, 128 kbps
Субтитры: нет
Реклама: аудио (два раза, в начале и конце, по 12 сек.)

MediaInfo

Format : AVI
Format/Info : Audio Video Interleave
File size : 242 MiB
Duration : 19 min 22 s
Overall bit rate : 1 747 kb/s
Writing application : Lavf57.71.100
Video
ID : 0
Format : MPEG-4 Visual
Format profile : Advanced Simple@L5
Format settings : BVOP1
Format settings, BVOP : 1
Format settings, QPel : No
Format settings, GMC : No warppoints
Format settings, Matrix : Default (H.263)
Codec ID : XVID
Codec ID/Hint : XviD
Duration : 19 min 22 s
Bit rate : 1 470 kb/s
Width : 720 pixels
Height : 400 pixels
Display aspect ratio : 16:9
Frame rate : 23.976 (24000/1001) FPS
Color space : YUV
Chroma subsampling : 4:2:0
Bit depth : 8 bits
Scan type : Progressive
Compression mode : Lossy
Bits/(Pixel*Frame) : 0.213
Stream size : 204 MiB (84%)
Writing library : XviD 67
Audio #1
ID : 1
Format : MPEG Audio
Format version : Version 1
Format profile : Layer 3
Format settings : Joint stereo / MS Stereo
Codec ID : 55
Codec ID/Hint : MP3
Duration : 19 min 22 s
Bit rate mode : Constant
Bit rate : 128 kb/s
Channel(s) : 2 channels
Sampling rate : 48.0 kHz
Compression mode : Lossy
Stream size : 17.7 MiB (7%)
Alignment : Aligned on interleaves
Interleave, duration : 24 ms (0.58 video frame)
Title : Gears Media
Writing library : LAME3.100
Audio #2
ID : 2
Format : MPEG Audio
Format version : Version 1
Format profile : Layer 3
Format settings : Joint stereo / MS Stereo
Codec ID : 55
Codec ID/Hint : MP3
Duration : 19 min 22 s
Bit rate mode : Constant
Bit rate : 128 kb/s
Channel(s) : 2 channels
Sampling rate : 48.0 kHz
Compression mode : Lossy
Stream size : 17.7 MiB (7%)
Alignment : Aligned on interleaves
Interleave, duration : 24 ms (0.58 video frame)
Writing library : LAME3.100.9d“mb`

Скриншоты




Внимание! Раздача ведётся путём добавления новых серий

Внимание! Раздача ведётся путём добавления новых серий; при каждом добавлении создаётся новый торрент. Чтобы начать докачку новой серии, пользователям необходимо сделать следующее:
(1) остановить скачивание,
(2) удалить старый торрент у себя из клиента (старые серии удалять не надо),
(3) скачать новый торрент и запустить его у себя в клиенте вместо старого, при этом указать клиенту путь в старую папку куда и должно происходить скачивание новых серий.
Ваш клиент при этом должен произвести хеширование (проверку) старой папки (если не производит сам - помогите ему сделать это), и будет докачивать только те серии которых у вас ещё нет. Старые серии при этом не удаляются, а продолжают раздаваться!
Eсли вы уже удалили старые серии, то предотвратить повторную закачку старых серий можно, отжав галочку в соответствующих местах при запуске нового торрента. По возможности, желательно не удалять старые серии как можно дольше чтобы релизёр не столько продолжал раздавать старые серии, а смог сконцентрироваться на новых.
[cybertorrent.ru].t143.torrent 
Торрент: Зарегистрирован [ 2019-03-18 10:04 ] · 6ACA0643D1AB4DEE2F5D1FEA5CB0448325AF2C35

Скачать .torrent

Скачать

22 KB

Статус: проверено
Скачан: 0 раз
Размер: 4,07 GB
terms.php
[Профиль] [ЛС]
Показать сообщения:    
Ответить на тему

Текущее время: 21-Июл 02:06

Часовой пояс: UTC ± 0



Вы не можете начинать темы
Вы не можете отвечать на сообщения
Вы не можете редактировать свои сообщения
Вы не можете удалять свои сообщения
Вы не можете голосовать в опросах
Вы не можете прикреплять файлы к сообщениям
Вы можете скачивать файлы