Волшебное зеркало (И. Молдабеков, Г. Бекшиев) [1990, СССР, мультфильм, DVB]

Ответить на тему
Статистика раздачи
Размер:  134 MB   |    Зарегистрирован:  4 месяца 24 дня   |    Скачан:  0 раз

Полного источника не было: Никогда

   
 
Автор Сообщение

xelon ®

Пол: Не указан

Стаж: 5 месяцев 6 дней

Сообщений: 94

Создавать темы 24-Мар-2019 17:09

[Цитировать]

Волшебное зеркало Год выпуска: 1990
Студия: Казахфильм
Жанр: мультфильм
Продолжительность: 00:07:44-Режиссёры: И. Молдабеков, Г. Бекшиев-Описание: Эксцентрическая лента, рассказывающая о злоключениях добродушного Дяу, похитившего руно.-Качество: DVB [Ел Арна] (эфир 24.03.2019)
Формат: TS
Видео: AVC, 720x576 (16:9) @ 1047x576, 25 fps, ~2110 kbps, 0.204 bit/pixel
Аудио: [RUS] MP2, 48 kHz, 2 ch, 192 kbps

Mediainfo

General
ID : 1 (0x1)
Complete name : H:\Раздачи\Волшебное зеркало (1990) [DVB].ts
Format : MPEG-TS
File size : 134 MiB
Duration : 7 min 44 s
Overall bit rate mode : Variable
Overall bit rate : 2 424 kb/s
Video
ID : 67 (0x43)
Menu ID : 1 (0x1)
Format : AVC
Format/Info : Advanced Video Codec
Format profile : High@L3
Format settings : CABAC / 3 Ref Frames
Format settings, CABAC : Yes
Format settings, ReFrames : 3 frames
Codec ID : 27
Duration : 7 min 44 s
Bit rate : 2 110 kb/s
Width : 720 pixels
Height : 576 pixels
Display aspect ratio : 16:9
Frame rate : 25.000 FPS
Standard : Component
Color space : YUV
Chroma subsampling : 4:2:0
Bit depth : 8 bits
Scan type : Interlaced
Scan type, store method : Separated fields
Scan order : Top Field First
Bits/(Pixel*Frame) : 0.204
Stream size : 117 MiB (87%)
Color range : Limited
Color primaries : BT.601 PAL
Transfer characteristics : BT.470 System B/G
Matrix coefficients : BT.470 System B/G
Audio
ID : 68 (0x44)
Menu ID : 1 (0x1)
Format : MPEG Audio
Format version : Version 1
Format profile : Layer 2
Codec ID : 3
Duration : 7 min 44 s
Bit rate mode : Constant
Bit rate : 192 kb/s
Channel(s) : 2 channels
Sampling rate : 48.0 kHz
Frame rate : 41.667 FPS (1152 SPF)
Compression mode : Lossy
Delay relative to video : -80 ms
Stream size : 10.6 MiB (8%)
Language : English

Скриншоты

[cybertorrent.ru].t1430.torrent 
Торрент: Зарегистрирован [ 2019-03-24 17:09 ] · 6C9DE4D311C5C2847020E019BD7F448E40C22016

Скачать .torrent

Скачать

11 KB

Статус: проверено
Скачан: 0 раз
Размер: 134 MB
terms.php
[Профиль] [ЛС]
Показать сообщения:    
Ответить на тему

Текущее время: 18-Авг 15:15

Часовой пояс: UTC ± 0



Вы не можете начинать темы
Вы не можете отвечать на сообщения
Вы не можете редактировать свои сообщения
Вы не можете удалять свои сообщения
Вы не можете голосовать в опросах
Вы не можете прикреплять файлы к сообщениям
Вы можете скачивать файлы