Баллада Бастера Скраггса / The Ballad of Buster Scruggs (Итан Коэн / Ethan Coen, Джоэл Коэн / Joel Coen) [2018, США, детектив, вестерн, комедия, WEB-DLRip] AVO (Юрий Сербин)

Ответить на тему
Статистика раздачи
Размер:  2,06 GB   |    Зарегистрирован:  4 месяца 24 дня   |    Скачан:  0 раз

Полного источника не было: Никогда

   
 
Автор Сообщение

солнышко ®

Пол: Не указан

Стаж: 5 месяцев 6 дней

Сообщений: 529

Создавать темы 25-Мар-2019 15:36

[Цитировать]

Баллада Бастера Скраггса / The Ballad of Buster Scruggs
Страна: США
Жанр: детектив, вестерн, комедия
Год выпуска: 2018
Продолжительность: 02:13:18

Перевод: Авторский (одноголосый закадровый) Юрий Сербин
Субтитры: нет
Режиссер: Итан Коэн / Ethan Coen
В ролях: Лиам Нисон, Джеймс Франко, Дэвид Крамхолц, Клэнси Браун, Зои Казан, Брендан Глисон, Гарри Меллинг, Стивен Рут, Том Уэйтс
Описание: Территория Дикого Запада была местом жестоких законов, и один из них был законом выживания сильнейшего. Людям, стремившихся просто жить, приходилось самим сражаться с бандитами, осаждавшими земли. Шесть историй положены в основу фильма и они окажутся яркими примерами того периода. Два утомленных артиста вынуждены колесить по стране. Искатель золотых слитков не мог бы не забрести сюда. И когда он наконец-то нашел желаемое, на его пути возник бандит, норовящий нагреть руки на чужом добре. Но даже в таких жестоких краях есть место для любви. А вот молодые пассажиры старенького дилижанса станут участниками другой истории....

Сэмпл: http://multi-up.com/1227476
Качество видео: WEB-DLRip (Исходник WEB-DL 1080p)
Формат видео: AVI
Видео: XviD 73, 720x384, (1,85:1), 23,976 fps, 1817 Кбит/с, 8 бит, 0.27 bit/pixel
Аудио: Русский (АС3, 6 ch (Front: L C R, Side: L R, LFE), 48,0 KHz, 384 Kbps)

MediaInfo

Общее
Полное имя : D:\Фильмы на трекер\Баллада Бастера Скраггса (комедия, детектив, вестерн 2018 год).avi
Формат : AVI
Формат/Информация : Audio Video Interleave
Профиль формата : OpenDML
Размер файла : 2,06 Гбайт
Продолжительность : 2 ч. 13 м.
Общий поток : 2213 Кбит/сек
Программа кодирования : VirtualDubMod 1.5.10.3 | www.virtualdub-fr.org || (build 2550/release)
Библиотека кодирования : VirtualDubMod build 2550/release
Видео
Идентификатор : 0
Формат : MPEG-4 Visual
Профиль формата : Advanced Simple@L5
Параметр BVOP формата : 2
Параметр QPel формата : Нет
Параметр GMC формата : Без точки перехода
Параметр матрицы формата : Выборочная
Идентификатор кодека : XVID
Идентификатор кодека/Подсказка : XviD
Продолжительность : 2 ч. 13 м.
Битрейт : 1817 Кбит/сек
Ширина : 720 пикселей
Высота : 384 пикселя
Соотношение сторон : 1,85:1
Частота кадров : 23,976 (23976/1000) кадра/сек
Цветовое пространство : YUV
Субдискретизация насыщенности : 4:2:0
Битовая глубина : 8 бит
Тип развёртки : Прогрессивная
Метод сжатия : С потерями
Бит/(Пиксели*Кадры) : 0.274
Размер потока : 1,69 Гбайт (82%)
Библиотека кодирования : XviD 73
Аудио
Идентификатор : 1
Формат : AC-3
Формат/Информация : Audio Coding 3
Расширение режима : CM (complete main)
Параметр Endianness формата : Big
Идентификатор кодека : 2000
Продолжительность : 2 ч. 13 м.
Вид битрейта : Постоянный
Битрейт : 384 Кбит/сек
Каналы : 6 каналов
Расположение каналов : Front: L C R, Side: L R, LFE
Частота : 48,0 КГц
Частота кадров : 31,250 кадров/сек (1536 spf)
Метод сжатия : С потерями
Размер потока : 366 Мбайт (17%)
Выравнивание : Разделение по промежуткам
Продолжительность промежутка : 42 мс. (1,00 видеокадр)
Время предзагрузки промежутка : 500 мс.

Скриншот c названием фильма

Скриншоты

[cybertorrent.ru].t1443.torrent 
Торрент: Зарегистрирован [ 2019-03-25 15:37 ] · D243F1DA16DE8D5121799F893F6747A6090479D8

Скачать .torrent

Скачать

11 KB

Статус: проверено
Скачан: 0 раз
Размер: 2,06 GB
terms.php
[Профиль] [ЛС]
Показать сообщения:    
Ответить на тему

Текущее время: 19-Авг 06:03

Часовой пояс: UTC ± 0



Вы не можете начинать темы
Вы не можете отвечать на сообщения
Вы не можете редактировать свои сообщения
Вы не можете удалять свои сообщения
Вы не можете голосовать в опросах
Вы не можете прикреплять файлы к сообщениям
Вы можете скачивать файлы