Гавайи 5-0 / Полиция Гавайев / Hawaii Five-0 / Сезон: 9 / Серии: 1-19 из 25 (Брайан Спайсер, Майя Врвило, Ларри Тенг) [2018, США, Боевик, драма, криминал, WEBRip] MVO (LostFilm) + Original

Ответить на тему
Статистика раздачи
Размер:  10,1 GB   |    Зарегистрирован:  5 месяцев 22 дня   |    Скачан:  0 раз

Полного источника не было: Никогда

   
 
Автор Сообщение

Рамфоринх ®

Пол: Не указан

Стаж: 6 месяцев 5 дней

Сообщений: 366

Создавать темы 26-Мар-2019 15:54

[Цитировать]

Гавайи 5-0 | Полиция Гавайев | Hawaii Five-0- Год выпуска: 2018
Страна: США
Жанр: Боевик, драма, криминал
Продолжительность: ~ 00:44:00-Перевод: Профессиональный (многоголосый закадровый) | LostFilm-Режиссёр: Брайан Спайсер, Майя Врвило, Ларри Тенг-В ролях: Алекс О'Локлин, Скотт Каан, Дэниэл Дэ Ким, Грейс Пак, Маси Ока, Тайлор Уайли, Чи МакБрайд, Хорхе Гарсиа, Дэннис Чун, Мишель Бор-Описание: Детектив Стив МакГарретт, бывший морской офицер с массой наград, а теперь полицейский, возвращается в Оаху расследовать убийство отца. Он остается на острове, после того, как губернатор штата Гавайи убедил его возглавить новую команду. Команда будет действовать по его правилам, при поддержке губернатора, без бюрократических проволочек, и с полным иммунитетом, все это — чтобы поймать самую крупную «дичь» в городе.- -[box=#aed8ff,#003465]Ссылка на предыдущие и альтернативные раздачи[/box]-Качество: WEBRip
Формат: AVI
Видео: XviD, 720x400 (16:9), 23.976, 24,000 кадр/с, ~1500 Кбит/с
Аудио Rus: MP3, 48 kHz, 2 ch, 128 Кбит/с | LostFilm
Аудио Eng: MP3, 48 kHz, 2 ch, 128 Кбит/с
Субтитры: Отсутствуют
Реклама: Отсутствует-

Список серий

01. Кокон / Ka owili oka'i
02. Упавший с небес / Ke Kanaka I Ha'ule Mai Ka Lewa Mai
03. Отлив обнажает камни, где прячутся каури / Mimiki Ke Kai, Ahuwale Ka Papa Leho
04. Правда - что шило в мешке: не утаишь / A'ohe kio pohaku nalo i ke alo pali
05. Вот где собака зарыта / A 'ohe mea 'imi a ka maka
06. Носимый на спине; носимый на руках / Aia i Hi'ikua; i Hi'ialo
07. Сон в руку / Pua a'e la ka uwahi o ka moe
08. Птицы одного полёта / Lele pu na manu like
09. Правда выходит из тени / Mai ka po mai ka 'oia'i'o
10. Когда свет гаснет, в доме темнеет / Pio ke kukui, po'ele ka hale
11. Ушедший в безвозвратный путь / Hala I Ke Ala O'i'ole Mai
12. С невинных быстро сходят синяки / Ka hauli o ka mea hewa 'ole, he nalowale koke
13. Те, кто выше, спускаются вниз / Ke iho mai nei ko luna
14. Подавленный жаром Кеавалуа / Ikiiki i ka la o Keawalua
15. Заключенные правлением дождя / Ho'opio 'ia e ka noho ali'i a ka ua
16. Жадные мысли порождают грех / Hapai ke kuko, hanau ka hewa
17. Подношение молодых листьев Таро / E'ao lu'au a kualima
18. У того, кто ест апэ, будет чесаться рот / Ai no i ka 'ape he mane'o no ko ka nuku
19. Глубинный осьминог выпускает чернила / Pupuhi Ka He'e O Kai Uli
-

MediaInfo

Общее
Полное имя : E:\Hawaii Five-0 (Season 9) WEBRip\Hawaii.Five-0.S09E01.WEBRip.[Wentworth_Miller].avi
Формат : AVI
Формат/Информация : Audio Video Interleave
Размер файла : 554 Мбайт
Продолжительность : 43 м. 45 с.
Общий поток : 1770 Кбит/сек
Программа кодирования : VirtualDubMod 1.5.10.2 (build 2540/release)
Библиотека кодирования : VirtualDubMod build 2540/release
Видео
Идентификатор : 0
Формат : MPEG-4 Visual
Профиль формата : Advanced Simple@L5
Настройки формата : BVOP1
Параметр BVOP формата : 1
Параметр QPel формата : Нет
Параметр GMC формата : Без точки перехода
Параметр матрицы формата : Default (MPEG)
Идентификатор кодека : XVID
Идентификатор кодека/Подсказка : XviD
Продолжительность : 43 м. 45 с.
Битрейт : 1500 Кбит/сек
Ширина : 720 пикселей
Высота : 400 пикселей
Соотношение сторон : 16:9
Частота кадров : 24,000 кадра/сек
Цветовое пространство : YUV
Субдискретизация насыщенности : 4:2:0
Битовая глубина : 8 бит
Тип развёртки : Прогрессивная
Метод сжатия : С потерями
Бит/(Пиксели*Кадры) : 0.217
Размер потока : 469 Мбайт (85%)
Библиотека кодирования : XviD 61
Аудио #1
Идентификатор : 1
Формат : MPEG Audio
Версия формата : Version 1
Профиль формата : Layer 3
Идентификатор кодека : 55
Идентификатор кодека/Подсказка : MP3
Продолжительность : 43 м. 45 с.
Вид битрейта : Постоянный
Битрейт : 128 Кбит/сек
Каналы : 2 канала
Частота : 48,0 КГц
Частота кадров : 41,667 кадра/сек (1152 SPF)
Метод сжатия : С потерями
Размер потока : 40,1 Мбайт (7%)
Выравнивание : Соединение по промежуткам
Продолжительность промежутка : 42 мс. (1,00 видеокадр)
Время предзагрузки промежутка : 504 мс.
Библиотека кодирования : LAME3.98r
Настройки программы : -m s -V 4 -q 2 -lowpass 17 -b 128
Аудио #2
Идентификатор : 2
Формат : MPEG Audio
Версия формата : Version 1
Профиль формата : Layer 3
Настройки формата : Joint stereo / MS Stereo
Идентификатор кодека : 55
Идентификатор кодека/Подсказка : MP3
Продолжительность : 43 м. 45 с.
Вид битрейта : Постоянный
Битрейт : 128 Кбит/сек
Каналы : 2 канала
Частота : 48,0 КГц
Метод сжатия : С потерями
Размер потока : 40,1 Мбайт (7%)
Выравнивание : Соединение по промежуткам
Продолжительность промежутка : 42 мс. (1,00 видеокадр)
Время предзагрузки промежутка : 504 мс.
Библиотека кодирования : LAME3.97
-

Скриншоты

-

Внимание! Раздача ведётся путём добавления новых серий

Внимание! Раздача ведётся путём добавления новых серий; при каждом добавлении создаётся новый торрент. Чтобы начать докачку новой серии, пользователям необходимо сделать следующее:
(1) остановить скачивание,
(2) удалить старый торрент у себя из клиента (старые серии удалять не надо),
(3) скачать новый торрент и запустить его у себя в клиенте вместо старого, при этом указать клиенту путь в старую папку куда и должно происходить скачивание новых серий.
Ваш клиент при этом должен произвести хеширование (проверку) старой папки (если не производит сам - помогите ему сделать это), и будет докачивать только те серии которых у вас ещё нет. Старые серии при этом не удаляются, а продолжают раздаваться!
Eсли вы уже удалили старые серии, то предотвратить повторную закачку старых серий можно, отжав галочку в соответствующих местах при запуске нового торрента. По возможности, желательно не удалять старые серии как можно дольше чтобы релизёр не столько продолжал раздавать старые серии, а смог сконцентрироваться на новых.
[cybertorrent.ru].t1453.torrent 
Торрент: Зарегистрирован [ 2019-03-26 15:55 ] · 2EA67B679849AB945B613764FED706A890EE8A24

Скачать .torrent

Скачать

52 KB

Статус: проверено
Скачан: 0 раз
Размер: 10,1 GB
terms.php
[Профиль] [ЛС]
Показать сообщения:    
Ответить на тему

Текущее время: 17-Сен 19:17

Часовой пояс: UTC ± 0



Вы не можете начинать темы
Вы не можете отвечать на сообщения
Вы не можете редактировать свои сообщения
Вы не можете удалять свои сообщения
Вы не можете голосовать в опросах
Вы не можете прикреплять файлы к сообщениям
Вы можете скачивать файлы

Партнеры

Выражаем благодарность всем людям, внесшим вклад в наш сайт в далёком прошлом. Мы помним Вас, гордимся Вами и ждём Вас обратно!

Интересное в сети