Наследие / Legacies / Сезон: 1 / Серии: 1-12 из 16 (Майкл А. Алловиц, Крис Грисмер, Пол Уэсли) [2018, США, ужасы, фэнтези, драма, детектив, приключения., WEB-DLRip] MVO (NewStudio) + Original

Ответить на тему
Статистика раздачи
Размер:  9,84 GB   |    Зарегистрирован:  1 месяц 6 дней   |    Скачан:  0 раз

Полного источника не было: Никогда

   
 
Автор Сообщение

Рамфоринх ®

Пол: Не указан

Стаж: 1 месяц 12 дней

Сообщений: 170

Создавать темы 18-Мар-2019 10:02

[Цитировать]

Наследие / Legacies Год выпуска: 2018
Страна: США
Жанр: ужасы, фэнтези, драма, детектив, приключения.
Продолжительность: ~00:43:00
Перевод: Профессиональный (многоголосый закадровый) NewStudio
Режиссёр: Майкл А. Алловиц, Крис Грисмер, Пол Уэсли
В ролях: Даниэль Роуз Расселл, Мэттью Дэвис, Кайли Брайант, Дженни Бойд, Ария Шахгасеми, Пейтон «Алекс» Смит, Куинси Фаус, Арчи Фолтинович, Карен Дэвид, Кэти Гарфилд.
Описание: Рассказ о следующем поколении сверхъестественных существ в Школе Сальваторе для молодых и одаренных. Дочь Клауса Майклсона, 17-летняя Хоуп
Майклсон; Близнецы Аларика Зальцмана, Лиззи и Джози Зальцман, и другие молодые люди достигли совершеннолетия необычным способом, чтобы стать их лучшими личностями, несмотря на их худшие импульсы. Станут ли эти молодые ведьмы, вампиры и оборотни героями, которыми они хотят быть — или злодеями, которыми они родились?


Качество: WEB-DLRip
Формат: AVI
Видео: XviD, 720x400, 23,976 fps, ~ 1999 kbps
Аудио 1: 48 kHz, AC3 Dolby Digital, 3/2 (L,C,R,l,r) + LFE ch, ~384 kbps|NewStudio|
Аудио 2: 48 kHz, AC3 Dolby Digital, 3/2 (L,C,R,l,r) + LFE ch, ~384 kbps
Субтитры: Нет
Реклама: Отсутствует

Релиз

Чистка от рекламы: Wanterlude (1-8)

MediaInfo

Format : AVI
Format/Info : Audio Video Interleave
File size : 844 MiB
Duration : 42mn 25s
Overall bit rate : 2 782 Kbps
Movie name : Наследие 1х01: Теперь ты должна бежать
Director : Бёдвар (WEB-DLRip 400p)
Writing application : VirtualDubMod 1.5.10.3 (build 2550/release)
Comment : 03.11.2018
Video
ID : 0
Format : MPEG-4 Visual
Format profile : Simple@L5
Format settings, BVOP : 1
Format settings, QPel : No
Format settings, GMC : No warppoints
Format settings, Matrix : Default (MPEG)
Codec ID : XVID
Codec ID/Hint : XviD
Duration : 42mn 25s
Bit rate : 2 000 Kbps
Width : 720 pixels
Height : 400 pixels
Display aspect ratio : 16:9
Frame rate : 23.976 (24000/1001) fps
Color space : YUV
Chroma subsampling : 4:2:0
Bit depth : 8 bits
Scan type : Progressive
Compression mode : Lossy
Bits/(Pixel*Frame) : 0.290
Stream size : 607 MiB (72%)
Writing library : XviD 67
Audio #1
ID : 1
Format : AC-3
Format/Info : Audio Coding 3
Mode extension : CM (complete main)
Format settings, Endianness : Big
Codec ID : 2000
Duration : 42mn 25s
Bit rate mode : Constant
Bit rate : 384 Kbps
Channel(s) : 6 channels
Channel positions : Front: L C R, Side: L R, LFE
Sampling rate : 48.0 KHz
Frame rate : 31.250 fps (1536 spf)
Compression mode : Lossy
Stream size : 117 MiB (14%)
Alignment : Split accross interleaves
Interleave, duration : 42 ms (1.00 video frame)
Interleave, preload duratio : 500 ms
Audio #2
ID : 2
Format : AC-3
Format/Info : Audio Coding 3
Mode extension : CM (complete main)
Format settings, Endianness : Big
Codec ID : 2000
Duration : 42mn 25s
Bit rate mode : Constant
Bit rate : 384 Kbps
Channel(s) : 6 channels
Channel positions : Front: L C R, Side: L R, LFE
Sampling rate : 48.0 KHz
Frame rate : 31.250 fps (1536 spf)
Compression mode : Lossy
Stream size : 117 MiB (14%)
Alignment : Split accross interleaves
Interleave, duration : 42 ms (1.00 video frame)
Interleave, preload duratio : 500 ms

Скриншоты

Внимание! Раздача ведётся путём добавления новых серий

Внимание! Раздача ведётся путём добавления новых серий; при каждом добавлении создаётся новый торрент. Чтобы начать докачку новой серии,пользователям необходимо сделать следующее:
(1) остановить скачивание,
(2) удалить старый торрент у себя из клиента (старые серии удалять не надо),
(3) скачать новый торрент и запустить его у себя в клиенте вместо старого, при этом указать клиенту путь в старую папку куда и должнопроисходить скачивание новых серий.
Ваш клиент при этом должен произвести хеширование (проверку) старой папки (если не производит сам - помогите ему сделать это), и будет докачивать только те серии
которых у вас ещё нет. Старые серии при этом не удаляются, а продолжают раздаваться!
Eсли вы уже удалили старые серии, то предотвратить повторную закачку старых серий можно, отжав галочку в соответствующих местах при запуске нового торрента.
По возможности, желательно не удалять старые серии как можно дольше чтобы релизёр не столько продолжал раздавать старые серии, а смог сконцентрироваться на новых.
Предыдущие и альтернативные раздачи

Если ваш рейтинг упадет ниже 0,3, вы не сможете скачивать торренты! Подробнее о рейтинге.

[cybertorrent.ru].t146.torrent 
Торрент: Зарегистрирован [ 2019-03-18 10:04 ] · EF4BBC2CC5EDFB91D556AD06866366D7A8325C1B

Скачать .torrent

Скачать

26 KB

Статус: проверено
Скачан: 0 раз
Размер: 9,84 GB
terms.php
[Профиль] [ЛС]
Показать сообщения:    
Ответить на тему

Текущее время: 24-Апр 18:41

Часовой пояс: UTC ± 0



Вы не можете начинать темы
Вы не можете отвечать на сообщения
Вы не можете редактировать свои сообщения
Вы не можете удалять свои сообщения
Вы не можете голосовать в опросах
Вы не можете прикреплять файлы к сообщениям
Вы можете скачивать файлы