Реальные пацаны / Сезон: 11 / Серии: 1-3 из 16 (Жанна Кадникова) [2019, комедия, WEBRip]

Ответить на тему
Статистика раздачи
Размер:  901 MB   |    Зарегистрирован:  25 дней   |    Скачан:  0 раз

Полного источника не было: Никогда

   
 
Автор Сообщение

sss777sss ®

Пол: Не указан

Стаж: 1 месяц 9 дней

Сообщений: 130

Создавать темы 26-Мар-2019 15:54

[Цитировать]

Реальные пацаны
Год выпуска: 2019
Производство: Гуд Стори Медиа
Жанр: комедия
Продолжительность: ~00:22:00 серия
Субтитры: нет
Режиссёр: Жанна Кадникова
В ролях: Николай Наумов, Зоя Бербер, Антон Богданов, Владимир Селиванов, Станислав Тляшев, Мария Скорницкая, Валентина Мазунина, Марина Федункив, Армен Бежанян, Игорь Ознобихин, Алексей Базанов, Анастасия Плоскова, Сергей Ершов, Татьяна Ронзина, Любовь Рудометова, Юлия Гришнина, Михаил Чуднов, Юрий Богомолов, Василий Бичев, Анна Шепелева
Описание: «Реальные пацаны» из гастрольного тура прошлого сезона вернутся в Пермь пожинать плоды своей популярности. Больше никогда не работать на дядю! Больше никогда не зависеть от Иваныча! Вечный кайф и полная идиллия. Только вот семейные заботы не дают выдохнуть. Но пацаны смотря вдаль и верят, что даже самая суровая «бытовуха» в итоге разрулится. Так-то всегда так бывает! В новом сезоне героев сериала ждут еще более взрослые и серьезные заботы. ЭКО, ипотека, свой бизнес – настало время новых возможностей! На протяжении 9-ти лет героям сериала удавалось уникальным образом выпутываться из самых разных передряг, сохраняя при этом важные жизненные ценности. Доброта, юмор, любовь и дружба – то, на чем держится мир «Реальных пацанов» не только в сериале, но и в реальной жизни. А значит, проблемы обязательно решатся, даже если немного накосячить…

Реклама: Нет.
Кинопоиск
Все раздачи сериала
Sample
Качество: WEBRip - 25Kuzmich
Формат: AVI
Видео кодек: XviD
Аудио кодек: AC3
Видео: 720x400 (1.80:1), 25 fps, XviD ~1750 kbps avg, 0.243 bit/pixel
Аудио: 48.0 kHz, AC3 Dolby Digital, 2/0 (L,R) ch, ~ 192 kbps

Внимание! Раздача ведётся путём добавления новых серий

Раздача ведётся путём добавления новых серий, при каждом добавлении создаётся новый торрент. Чтобы начать докачку новой серии, пользователям необходимо сделать следующее:
- Остановить скачивание.
- Удалить старый торрент у себя из клиента (старые серии удалять не надо).
- Скачать новый торрент и запустить его у себя в клиенте вместо старого, при этом указать клиенту путь в старую папку куда и должно происходить скачивание новых серий.
Ваш клиент при этом должен произвести хеширование (проверку) старой папки (если не производит сам - помогите ему сделать это), и будет докачивать только те серии которых у вас ещё нет. Старые серии при этом не удаляются, а продолжают раздаваться!
Если вы уже удалили старые серии, то предотвратить повторную закачку старых серий можно, отжав галочку в соответствующих местах при запуске нового торрента. По возможности, желательно не удалять старые серии как можно дольше, чтобы релизер не столько продолжал раздавать старые серии, а смог сконцентрироваться на новых.

MI

General
Complete name : D:\Realnye.pacany.s11.WEB-DLRip.25Kuzmich\Realnye.pacany.s11.e01.WEB-DLRip.25Kuzmich.avi
Format : AVI
Format/Info : Audio Video Interleave
File size : 300 MiB
Duration : 21 min 30 s
Overall bit rate : 1 953 kb/s
Writing application : VirtualDubMod 1.5.10.3 | www.virtualdub-fr.org || (build 2550/release)
Writing library : VirtualDubMod build 2550/release
Video
ID : 0
Format : MPEG-4 Visual
Format profile : Advanced Simple@L5
Format settings : BVOP1
Format settings, BVOP : 1
Format settings, QPel : No
Format settings, GMC : No warppoints
Format settings, Matrix : Default (MPEG)
Codec ID : XVID
Codec ID/Hint : XviD
Duration : 21 min 30 s
Bit rate : 1 751 kb/s
Width : 720 pixels
Height : 400 pixels
Display aspect ratio : 16:9
Frame rate : 25.000 FPS
Color space : YUV
Chroma subsampling : 4:2:0
Bit depth : 8 bits
Scan type : Progressive
Compression mode : Lossy
Bits/(Pixel*Frame) : 0.243
Stream size : 269 MiB (90%)
Writing library : XviD 73
Audio
ID : 1
Format : AC-3
Format/Info : Audio Coding 3
Codec ID : 2000
Duration : 21 min 30 s
Bit rate mode : Constant
Bit rate : 192 kb/s
Channel(s) : 2 channels
Channel positions : Front: L R
Sampling rate : 48.0 kHz
Frame rate : 31.250 FPS (1536 SPF)
Bit depth : 16 bits
Compression mode : Lossy
Stream size : 29.5 MiB (10%)
Alignment : Split accross interleaves
Interleave, duration : 40 ms (1.00 video frame)
Interleave, preload duratio : 500 ms
Service kind : Complete Main

Скриншоты


Если ваш рейтинг упадет ниже 0,3, вы не сможете скачивать торренты! Подробнее о рейтинге.

[cybertorrent.ru].t1474.torrent 
Торрент: Зарегистрирован [ 2019-03-26 15:55 ] · F8FC4F52A666D13E1A4754CDC61A2A07E2254C10

Скачать .torrent

Скачать

18 KB

Статус: проверено
Скачан: 0 раз
Размер: 901 MB
terms.php
[Профиль] [ЛС]
Показать сообщения:    
Ответить на тему

Текущее время: 21-Апр 14:52

Часовой пояс: UTC ± 0



Вы не можете начинать темы
Вы не можете отвечать на сообщения
Вы не можете редактировать свои сообщения
Вы не можете удалять свои сообщения
Вы не можете голосовать в опросах
Вы не можете прикреплять файлы к сообщениям
Вы можете скачивать файлы