А у нас во дворе / Сезон: 2 / Серии: 1-2 из 8 (Ольга Музалева) [2019, детектив, HDTVRip]

Ответить на тему
Статистика раздачи
Размер:  1,45 GB   |    Зарегистрирован:  5 месяцев 19 дней   |    Скачан:  0 раз

Полного источника не было: Никогда

   
 
Автор Сообщение

sss777sss ®

Пол: Не указан

Стаж: 6 месяцев 2 дня

Сообщений: 423

Создавать темы 26-Мар-2019 15:54

[Цитировать]

А у нас во дворе-2
Год выпуска: 2019
Производство: АТВ Продакшн
Жанр: детектив
Продолжительность: ~00:52:00 серия
Субтитры: нет
Режиссёр: Ольга Музалева
В ролях: Сергей Пускепалис, Равшана Куркова, Ирина Луковская, Андрей Заводюк, Екатерина Кирчак, Юрий Черкасов, Александр Чернявский, Евгения Бордзиловская, Дарья Белоусова, Сайдо Курбанов, Анна Уколова, Тимур Нижеметдинов, Шохижахон Турсунбаев, Константин Бураев
Описание: Продолжение полюбившегося зрителям детективного сериала о нескучных буднях интернациональной пары: русского экс-полицейского Владимира Каленого и красавицы из Узбекистана Мавлюды. Несмотря на разницу менталитетов и вытекающее из неё частое недопонимание, Каленый и Мавлюда — не только харизматичная пара, но и отличная команда, способная раскрыть любое преступление…

Реклама: Нет.
Кинопоиск
Все раздачи сериала
Sample
Качество: HDTVRip - olegka7373 (GeneralFilm)
Формат: AVI
Видео кодек: XviD
Аудио кодек: AC3
Видео: 720x368 (1.96:1), 25 fps, XviD, ~1800 kbps avg, 0.27 bit/pixel
Аудио: 48.0 kHz, AC3 Dolby Digital, 2/0 (L,R) ch, ~ 192 kbps

Внимание! Раздача ведётся путём добавления новых серий

Раздача ведётся путём добавления новых серий, при каждом добавлении создаётся новый торрент. Чтобы начать докачку новой серии, пользователям необходимо сделать следующее:
- Остановить скачивание.
- Удалить старый торрент у себя из клиента (старые серии удалять не надо).
- Скачать новый торрент и запустить его у себя в клиенте вместо старого, при этом указать клиенту путь в старую папку куда и должно происходить скачивание новых серий.
Ваш клиент при этом должен произвести хеширование (проверку) старой папки (если не производит сам - помогите ему сделать это), и будет докачивать только те серии которых у вас ещё нет. Старые серии при этом не удаляются, а продолжают раздаваться!
Если вы уже удалили старые серии, то предотвратить повторную закачку старых серий можно, отжав галочку в соответствующих местах при запуске нового торрента. По возможности, желательно не удалять старые серии как можно дольше, чтобы релизер не столько продолжал раздавать старые серии, а смог сконцентрироваться на новых.

MI

General
Complete name : D:\A u nas vo dvore 2.HDTVRip.GeneralFilm\01.A u nas vo dvore 2.HDTVRip.GeneralFilm.avi
Format : AVI
Format/Info : Audio Video Interleave
File size : 749 MiB
Duration : 52 min 35 s
Overall bit rate : 1 990 kb/s
Writing application : VirtualDubMod 1.5.10.3 | www.virtualdub-fr.org || (build 2550/release)
Writing library : VirtualDubMod build 2550/release
Video
ID : 0
Format : MPEG-4 Visual
Format profile : Advanced Simple@L5
Format settings : BVOP1 / Custom Matrix
Format settings, BVOP : 1
Format settings, QPel : No
Format settings, GMC : No warppoints
Format settings, Matrix : Custom
Codec ID : XVID
Codec ID/Hint : XviD
Duration : 52 min 35 s
Bit rate : 1 789 kb/s
Width : 720 pixels
Height : 368 pixels
Display aspect ratio : 1.957
Frame rate : 25.000 FPS
Color space : YUV
Chroma subsampling : 4:2:0
Bit depth : 8 bits
Scan type : Progressive
Compression mode : Lossy
Bits/(Pixel*Frame) : 0.270
Stream size : 673 MiB (90%)
Writing library : XviD 1.2.1 (UTC 2008-12-04)
Audio
ID : 1
Format : AC-3
Format/Info : Audio Coding 3
Codec ID : 2000
Duration : 52 min 35 s
Bit rate mode : Constant
Bit rate : 192 kb/s
Channel(s) : 2 channels
Channel positions : Front: L R
Sampling rate : 48.0 kHz
Frame rate : 31.250 FPS (1536 SPF)
Bit depth : 16 bits
Compression mode : Lossy
Stream size : 72.2 MiB (10%)
Alignment : Split accross interleaves
Interleave, duration : 40 ms (1.00 video frame)
Interleave, preload duratio : 500 ms
Service kind : Complete Main

Скриншоты


[cybertorrent.ru].t1477.torrent 
Торрент: Зарегистрирован [ 2019-03-26 15:55 ] · 8B75B90E28191B51EE0E451BA253E3137D3D5533

Скачать .torrent

Скачать

15 KB

Статус: проверено
Скачан: 0 раз
Размер: 1,45 GB
terms.php
[Профиль] [ЛС]
Показать сообщения:    
Ответить на тему

Текущее время: 15-Сен 09:44

Часовой пояс: UTC ± 0



Вы не можете начинать темы
Вы не можете отвечать на сообщения
Вы не можете редактировать свои сообщения
Вы не можете удалять свои сообщения
Вы не можете голосовать в опросах
Вы не можете прикреплять файлы к сообщениям
Вы можете скачивать файлы

Партнеры

Выражаем благодарность всем людям, внесшим вклад в наш сайт в далёком прошлом. Мы помним Вас, гордимся Вами и ждём Вас обратно!

Интересное в сети