Гоголь / Серии: 1 из 8 (Егор Баранов) [2017, Детектив, приключения, драма, мистика WEBRip 720p]

Ответить на тему
Статистика раздачи
Размер:  1,24 GB   |    Зарегистрирован:  26 дней   |    Скачан:  0 раз

Полного источника не было: Никогда

   
 
Автор Сообщение

sss777sss ®

Пол: Не указан

Стаж: 1 месяц 9 дней

Сообщений: 133

Создавать темы 26-Мар-2019 15:54

[Цитировать]

Гоголь
- Год выпуска: 2017
Производство: Продюсерская компания «Среда»
Жанр: Детектив, приключения, драма, мистика
Продолжительность: 00:56:08
Субтитры: нет-Режиссёр: Егор Баранов-В ролях: Александр Петров, Олег Меньшиков, Евгений Стычкин, Таисия Вилкова, Юлия Франц, Ян Цапник, Евгений Сытый, Сергей Бадюк, Артём Ткаченко, Марта Тимофеева, Павел Деревянко-Описание: Такого Гоголя тебе в кино не покажут. Абсолютно новые серии, которые изменят все – киносериал «Гоголь», который будет состоять из восьми серий и включать два совершенно новых эпизода. Столичный писарь Николай Гоголь появится в откровенных кадрах серии "Мёртвые души": познакомит будущего классика русской литературы с весьма специфическим тайным обществом аристократов и помещиков. Кроме того, зрители услышат предысторию полицейского Бинха, и узнают, какая трагедия заставила его навсегда покинуть Петербург. Другой новый эпизод, "Колодец крови", позволит заглянуть в загадочное прошлое Диканьки, также омрачённое визитами Тёмного Всадника. Восьмисерийный киносериал "Гоголь" включает более ста минут свежего и оригинального контента, который не видел ещё никто.-Релиз группа: - -Качество: WEBRip 720p
Формат: MKV
Видео кодек: H.264
Аудио кодек: AC3
Видео: MPEG-4 AVC, 1280x720 (16:9), 25.000 fps, 2912 Kbps, 0.126 bits/pixel
Аудио: 48 kHz, AC3 Dolby Digital, 2 ch, 192 Kbps
Реклама: Нет

MI

General
Complete name : Downloads\01. Гоголь, 2019. WEB-DL 720p. Files-x.mkv
Format : Matroska
Format version : Version 2
File size : 1.24 GiB
Duration : 56mn 8s
Overall bit rate : 3 167 Kbps
Encoded date : UTC 2019-03-25 19:50:04
Writing application : mkvmerge v7.8.0 ('River Man') 32bit built on Apr 3 2015 12:11:22
Writing library : libebml v1.3.1 + libmatroska v1.4.2
Video #1
ID : 1
Format : AVC
Format/Info : Advanced Video Codec
Format profile : High@L3.1
Format settings, CABAC : Yes
Format settings, ReFrames : 1 frame
Format settings, GOP : M=1, N=12
Codec ID : V_MPEG4/ISO/AVC
Duration : 56mn 8s
Bit rate : 2 912 Kbps
Width : 1 280 pixels
Height : 720 pixels
Display aspect ratio : 16:9
Frame rate mode : Constant
Frame rate : 25.000 fps
Standard : Component
Color space : YUV
Chroma subsampling : 4:2:0
Bit depth : 8 bits
Scan type : Progressive
Bits/(Pixel*Frame) : 0.126
Stream size : 1.14 GiB (92%)
Default : Yes
Forced : No
Color range : Limited
Audio #2
ID : 2
Format : AC-3
Format/Info : Audio Coding 3
Mode extension : CM (complete main)
Format settings, Endianness : Big
Codec ID : A_AC3
Duration : 56mn 8s
Bit rate mode : Constant
Bit rate : 192 Kbps
Channel(s) : 2 channels
Channel positions : Front: L R
Sampling rate : 44.1 KHz
Bit depth : 16 bits
Compression mode : Lossy
Stream size : 77.1 MiB (6%)
Default : Yes
Forced : No

Скриншоты

Внимание! Раздача ведётся путём добавления новых серий:

(1) остановить скачивание,
(2) удалить старый торрент у себя из клиента (старые серии удалять не надо),
(3) скачать новый торрент и запустить его у себя в клиенте вместо старого, при этом указать клиенту путь в старую папку куда и должно происходить скачивание новых серий.
Ваш клиент при этом должен произвести хеширование (проверку) старой папки (если не производит сам - помогите ему сделать это), и будет докачивать только те серии которых у вас ещё нет. Старые серии при этом не удаляются, а продолжают раздаваться!
Eсли вы уже удалили старые серии, то предотвратить повторную закачку старых серий можно, отжав галочку в соответсвующих местах при запуске нового торрента. По возможности, желательно не удалять старые серии как можно дольше чтобы релизёр не столько продолжал раздавать старые серии, а смог сконцентрироваться на новых
.
Предыдущие и альтернативные раздачи

Если ваш рейтинг упадет ниже 0,3, вы не сможете скачивать торренты! Подробнее о рейтинге.

[cybertorrent.ru].t1479.torrent 
Торрент: Зарегистрирован [ 2019-03-26 15:55 ] · BEB1671E8585CD96B33BE91CB6D6AFC89369544F

Скачать .torrent

Скачать

13 KB

Статус: проверено
Скачан: 0 раз
Размер: 1,24 GB
terms.php
[Профиль] [ЛС]
Показать сообщения:    
Ответить на тему

Текущее время: 21-Апр 18:30

Часовой пояс: UTC ± 0



Вы не можете начинать темы
Вы не можете отвечать на сообщения
Вы не можете редактировать свои сообщения
Вы не можете удалять свои сообщения
Вы не можете голосовать в опросах
Вы не можете прикреплять файлы к сообщениям
Вы можете скачивать файлы