Гоголь / Серии: 1 из 8 (Егор Баранов) [2017, Детектив, приключения, драма, мистика, WEBRip]

Ответить на тему
Статистика раздачи
Размер:  710 MB   |    Зарегистрирован:  5 месяцев 22 дня   |    Скачан:  0 раз

Полного источника не было: Никогда

   
 
Автор Сообщение

sss777sss ®

Пол: Не указан

Стаж: 6 месяцев 5 дней

Сообщений: 423

Создавать темы 26-Мар-2019 15:54

[Цитировать]

Гоголь
- Год выпуска: 2017
Производство: Продюсерская компания «Среда»
Жанр: Детектив, приключения, драма,
Продолжительность: 00:55:08
Субтитры: нет-Режиссёр: Егор Баранов-В ролях: Александр Петров, Олег Меньшиков, Евгений Стычкин, Таисия Вилкова, Юлия Франц, Ян Цапник, Евгений Сытый, Сергей Бадюк, Артём Ткаченко, Марта Тимофеева, Павел Деревянко-Описание: Такого Гоголя тебе в кино не покажут. Абсолютно новые серии, которые изменят все – киносериал «Гоголь», который будет состоять из восьми серий и включать два совершенно новых эпизода. Столичный писарь Николай Гоголь появится в откровенных кадрах серии "Мёртвые души": познакомит будущего классика русской литературы с весьма специфическим тайным обществом аристократов и помещиков. Кроме того, зрители услышат предысторию полицейского Бинха, и узнают, какая трагедия заставила его навсегда покинуть Петербург. Другой новый эпизод, "Колодец крови", позволит заглянуть в загадочное прошлое Диканьки, также омрачённое визитами Тёмного Всадника. Восьмисерийный киносериал "Гоголь" включает более ста минут свежего и оригинального контента, который не видел ещё никто.-Релиз группа: -Сэмпл: http://multi-up.com/1227569-Качество: WEBRip
Формат: AVI
Видео кодек: XviD
Аудио кодек: AC3
Видео: 720x400 (16:9), 25.000 fps, XviD, 1600 Kbps, 0.22 bit/pixel
Аудио: 48 kHz, AC3, 2/0 (L,R) ch, 192.00 kbps
Реклама: Нет

MI

General
Complete name : Downloads\01. Гоголь, 2019. WEB-DLRip. Files-x.avi
Format : AVI
Format/Info : Audio Video Interleave
File size : 710 MiB
Duration : 55mn 7s
Overall bit rate : 1 802 Kbps
Writing application : VirtualDubMod 1.5.10.3 | www.virtualdub-fr.org || (build 2550/release)
Writing library : VirtualDubMod build 2550/release
Video #0
ID : 0
Format : MPEG-4 Visual
Format profile : Advanced Simple@L5
Format settings, BVOP : 1
Format settings, QPel : No
Format settings, GMC : No warppoints
Format settings, Matrix : Custom
Codec ID : XVID
Codec ID/Hint : XviD
Duration : 55mn 7s
Bit rate : 1 600 Kbps
Width : 720 pixels
Height : 400 pixels
Display aspect ratio : 16:9
Frame rate : 25.000 fps
Color space : YUV
Chroma subsampling : 4:2:0
Bit depth : 8 bits
Scan type : Progressive
Compression mode : Lossy
Bits/(Pixel*Frame) : 0.222
Stream size : 631 MiB (89%)
Writing library : XviD 73
Audio #1
ID : 1
Format : AC-3
Format/Info : Audio Coding 3
Mode extension : CM (complete main)
Format settings, Endianness : Big
Codec ID : 2000
Duration : 55mn 7s
Bit rate mode : Constant
Bit rate : 192 Kbps
Channel(s) : 2 channels
Channel positions : Front: L R
Sampling rate : 48.0 KHz
Bit depth : 16 bits
Compression mode : Lossy
Stream size : 75.7 MiB (11%)
Alignment : Split accross interleaves
Interleave, duration : 40 ms (1.00 video frame)
Interleave, preload duration : 500 ms

Скриншоты

Внимание! Раздача ведётся путём добавления новых серий:

(1) остановить скачивание,
(2) удалить старый торрент у себя из клиента (старые серии удалять не надо),
(3) скачать новый торрент и запустить его у себя в клиенте вместо старого, при этом указать клиенту путь в старую папку куда и должно происходить скачивание новых серий.
Ваш клиент при этом должен произвести хеширование (проверку) старой папки (если не производит сам - помогите ему сделать это), и будет докачивать только те серии которых у вас ещё нет. Старые серии при этом не удаляются, а продолжают раздаваться!
Eсли вы уже удалили старые серии, то предотвратить повторную закачку старых серий можно, отжав галочку в соответсвующих местах при запуске нового торрента. По возможности, желательно не удалять старые серии как можно дольше чтобы релизёр не столько продолжал раздавать старые серии, а смог сконцентрироваться на новых
.
Предыдущие и альтернативные раздачи
[cybertorrent.ru].t1481.torrent 
Торрент: Зарегистрирован [ 2019-03-26 15:55 ] · 74325050FFE23F8DB7AB0F6286900C692C4D87C1

Скачать .torrent

Скачать

14 KB

Статус: проверено
Скачан: 0 раз
Размер: 710 MB
terms.php
[Профиль] [ЛС]
Показать сообщения:    
Ответить на тему

Текущее время: 17-Сен 19:35

Часовой пояс: UTC ± 0



Вы не можете начинать темы
Вы не можете отвечать на сообщения
Вы не можете редактировать свои сообщения
Вы не можете удалять свои сообщения
Вы не можете голосовать в опросах
Вы не можете прикреплять файлы к сообщениям
Вы можете скачивать файлы

Партнеры

Выражаем благодарность всем людям, внесшим вклад в наш сайт в далёком прошлом. Мы помним Вас, гордимся Вами и ждём Вас обратно!

Интересное в сети