Славные парни / Хорошие ребята / The Nice Guys (Шейн Блэк / Shane Black) [2016, США, Великобритания, комедия, криминал, BDRip] AVO (Леонид Володарский) + AVO (Юрий Сербин)

Ответить на тему
Статистика раздачи
Размер:  2,17 GB   |    Зарегистрирован:  5 месяцев 19 дней   |    Скачан:  0 раз

Полного источника не было: Никогда

   
 
Автор Сообщение

солнышко ®

Пол: Не указан

Стаж: 6 месяцев 2 дня

Сообщений: 565

Создавать темы 26-Мар-2019 15:54

[Цитировать]

Славные парни / Хорошие ребята / The Nice Guys
Страна: США, Великобритания
Жанр: комедия, криминал
Год выпуска: 2016
Продолжительность: 01:55:47

Перевод: Авторский (одноголосый закадровый) Леонид Володарский
Перевод 2: Авторский (одноголосый закадровый) Юрий Сербин
Субтитры: нет
Режиссер: Шейн Блэк / Shane Black
В ролях: Райан Гослинг, Ким Бейсингер, Расселл Кроу, Энгаури Райс, Мэтт Бомер, Маргарет Куэлли, Йайа ДаКоста, Кит Дэвид, Лоис Смит
Описание: Действие ленты разворачивается на пике революции вольнодумия в 70-е. Это время можно смело обозначить расцветом порноидустрии, где нет месту комплексам и морали. Загадочную смерть порнозвезды расследует Марч Холлоу. Тактичный с окружающими, с деликатными манерами и отточенным мастерством он привык добиваться поставленных целей субтильными методами. Тетя погибшей уверена, что ее племянница жива. Марч скептически относится к умозаключениям убитой горем женщины, но из-за нехватки средств берется за дело. Джексон Хейли расследует внезапное исчезновение дочери шефа. По неимоверной случайности двое вынуждены сработаться. Но смогут ли? Ведь Хейли своенравный, принципиальный, бескомпромиссный, умудренный опытом профессионал. Он не привык договариваться с подозреваемыми или соучастниками. Как раскрыть дело, когда детективы не могут найти консенсуса...?!
Доп. информация: Выражаю огромную благодарность Нордеру за синхронизацию дорожки с Володарским.

Сэмпл: http://multi-up.com/1227608
Качество видео: BDRip (Исходник BDRemux 1080p)
Формат видео: AVI
Видео: XviD 73, 720x304, (2,35:1), 23,976 fps, 1771 Кбит/с, 8 бит, 0.33 bit/pixel
Аудио: Русский (АС3, 6 ch (Front: L C R, Side: L R, LFE), 48,0 KHz, 448 Kbps) Леонид Володарский
Аудио 2: Русский (АС3, 6 ch (Front: L C R, Side: L R, LFE), 48,0 KHz, 448 Kbps) Юрий Сербин

MediaInfo

Общее
Полное имя : D:\Фильмы на трекер\Славные парни (криминал, комедия 2016 год).avi
Формат : AVI
Формат/Информация : Audio Video Interleave
Профиль формата : OpenDML
Размер файла : 2,17 Гбайт
Продолжительность : 1 ч. 55 м.
Общий поток : 2684 Кбит/сек
Программа кодирования : VirtualDubMod 1.5.10.2 (build 2540/release)
Библиотека кодирования : VirtualDubMod build 2540/release
Видео
Идентификатор : 0
Формат : MPEG-4 Visual
Профиль формата : Advanced Simple@L5
Параметр BVOP формата : 2
Параметр QPel формата : Нет
Параметр GMC формата : Без точки перехода
Параметр матрицы формата : Выборочная
Идентификатор кодека : XVID
Идентификатор кодека/Подсказка : XviD
Продолжительность : 1 ч. 55 м.
Битрейт : 1771 Кбит/сек
Ширина : 720 пикселей
Высота : 304 пикселя
Соотношение сторон : 2,35:1
Частота кадров : 23,976 (23976/1000) кадра/сек
Цветовое пространство : YUV
Субдискретизация насыщенности : 4:2:0
Битовая глубина : 8 бит
Тип развёртки : Прогрессивная
Метод сжатия : С потерями
Бит/(Пиксели*Кадры) : 0.337
Размер потока : 1,43 Гбайт (66%)
Библиотека кодирования : XviD 73
Аудио #1
Идентификатор : 1
Формат : AC-3
Формат/Информация : Audio Coding 3
Расширение режима : CM (complete main)
Параметр Endianness формата : Big
Идентификатор кодека : 2000
Продолжительность : 1 ч. 55 м.
Вид битрейта : Постоянный
Битрейт : 448 Кбит/сек
Каналы : 6 каналов
Расположение каналов : Front: L C R, Side: L R, LFE
Частота : 48,0 КГц
Частота кадров : 31,250 кадров/сек (1536 spf)
Метод сжатия : С потерями
Размер потока : 371 Мбайт (17%)
Выравнивание : Разделение по промежуткам
Продолжительность промежутка : 42 мс. (1,00 видеокадр)
Время предзагрузки промежутка : 500 мс.
Аудио #2
Идентификатор : 2
Формат : AC-3
Формат/Информация : Audio Coding 3
Расширение режима : CM (complete main)
Параметр Endianness формата : Big
Идентификатор кодека : 2000
Продолжительность : 1 ч. 55 м.
Вид битрейта : Постоянный
Битрейт : 448 Кбит/сек
Каналы : 6 каналов
Расположение каналов : Front: L C R, Side: L R, LFE
Частота : 48,0 КГц
Частота кадров : 31,250 кадров/сек (1536 spf)
Метод сжатия : С потерями
Размер потока : 371 Мбайт (17%)
Выравнивание : Разделение по промежуткам
Продолжительность промежутка : 42 мс. (1,00 видеокадр)
Время предзагрузки промежутка : 500 мс.

Скриншот c названием фильма

Скриншоты

[cybertorrent.ru].t1489.torrent 
Торрент: Зарегистрирован [ 2019-03-26 15:55 ] · 97AADF75BFBBC22DA93D4B6BA07F1777E7A6BEF2

Скачать .torrent

Скачать

11 KB

Статус: проверено
Скачан: 0 раз
Размер: 2,17 GB
terms.php
[Профиль] [ЛС]
Показать сообщения:    
Ответить на тему

Текущее время: 15-Сен 10:13

Часовой пояс: UTC ± 0



Вы не можете начинать темы
Вы не можете отвечать на сообщения
Вы не можете редактировать свои сообщения
Вы не можете удалять свои сообщения
Вы не можете голосовать в опросах
Вы не можете прикреплять файлы к сообщениям
Вы можете скачивать файлы

Партнеры

Выражаем благодарность всем людям, внесшим вклад в наш сайт в далёком прошлом. Мы помним Вас, гордимся Вами и ждём Вас обратно!

Интересное в сети