Мистер Булл / Bull / Сезон: 3 / Серии: 1-17 из 22 (Родриго Гарсия, Питер Лето) [2018, США, Драма, комедия, криминал, WEBRip] DVO (Gears Media) + Original

Ответить на тему
Статистика раздачи
Размер:  8,77 GB   |    Зарегистрирован:  5 месяцев 21 день   |    Скачан:  0 раз

Полного источника не было: Никогда

   
 
Автор Сообщение

Рамфоринх ®

Пол: Не указан

Стаж: 6 месяцев 5 дней

Сообщений: 366

Создавать темы 27-Мар-2019 16:23

[Цитировать]

Мистер Булл / Bull
Год выпуска: 2018
Страна: США
Жанр: Драма, комедия, криминал
Продолжительность: ~ 00:43:00
Перевод: Профессиональный (двухголосый закадровый)[Gears Media]
Режиссёр: Родриго Гарсия, Питер Лето
В ролях: Майкл Уэтерли, Фредди Родригес, Женева Карр, Джейми Ли Киршнер, Аннабель Аттанасио, Кристофер Нил Джексон, Тереза Тинг, Джимми Саито
Описание:
Доктор Джейсон Булл обладает умением очаровывать людей и управляет ими так, как хочет. Он совершенно не стесняется применять самые различные методы манипуляции, ради достижения своей цели. Дерзкий у уверенный в себе, он всегда справляется даже с самой сложной задачей. Являясь настоящим экспертом в области психологии, он находит доступ к любому человеку и нередко использует свои навыки в судебных процессах. Доктор Булл точно знает, как повлиять на адвоката или свидетелей, чтобы они сказали именно то, что видели на самом деле. Однако в одиночку Джейсон вряд ли смог бы справиться со столь непростой задачей, поэтому он собрал настоящую команду из лучших профессионалов...
Ссылка на предыдущие и альтернативные раздачи: http://cybertorrent.ru/forum/tracker.php?nm=Bull
Сэмпл: http://multi-up.com/1210276
Качество: WEBRip
Формат: AVI
Видео: XviD, 720x400 at 23.976 fps, ~1200 kbps avg
Аудио1: Russian, MP3, 48 kHz, 2 ch, 128 kbps
Аудио2: English, MP3, 48 kHz, 2 ch, 128 kbps
Субтитры: нет
Реклама: аудио (два раза, в начале и конце, по 12 сек.)

MediaInfo

Format : AVI
Format/Info : Audio Video Interleave
File size : 464 MiB
Duration : 43 min 11 s
Overall bit rate : 1 504 kb/s
Writing application : Lavf57.29.101
Video
ID : 0
Format : xvid
Codec ID : xvid
Duration : 43 min 11 s
Bit rate : 1 227 kb/s
Width : 720 pixels
Height : 400 pixels
Display aspect ratio : 16:9
Frame rate : 23.976 (24000/1001) FPS
Scan type : Progressive
Bits/(Pixel*Frame) : 0.178
Stream size : 379 MiB (82%)
Audio #1
ID : 1
Format : MPEG Audio
Format version : Version 1
Format profile : Layer 3
Format settings : Joint stereo / MS Stereo
Codec ID : 55
Codec ID/Hint : MP3
Duration : 43 min 11 s
Bit rate mode : Constant
Bit rate : 128 kb/s
Channel(s) : 2 channels
Sampling rate : 48.0 kHz
Compression mode : Lossy
Stream size : 39.5 MiB (9%)
Alignment : Aligned on interleaves
Interleave, duration : 24 ms (0.58 video frame)
Interleave, preload duratio : 120 ms
Title : Gears Media
Writing library : LAME3.99.5
Audio #2
ID : 2
Format : MPEG Audio
Format version : Version 1
Format profile : Layer 3
Format settings : Joint stereo / MS Stereo
Codec ID : 55
Codec ID/Hint : MP3
Duration : 43 min 10 s
Bit rate mode : Constant
Bit rate : 128 kb/s
Channel(s) : 2 channels
Sampling rate : 48.0 kHz
Compression mode : Lossy
Stream size : 39.5 MiB (9%)
Alignment : Aligned on interleaves
Interleave, duration : 24 ms (0.58 video frame)
Interleave, preload duratio : 120 ms
Writing library : LAME3.99.5

Скриншоты

Внимание! Раздача ведётся путём добавления новых серий

Внимание! Раздача ведётся путём добавления новых серий; при каждом добавлении создаётся новый торрент. Чтобы начать докачку новой серии, пользователям необходимо сделать следующее:
(1) остановить скачивание,
(2) удалить старый торрент у себя из клиента (старые серии удалять не надо),
(3) скачать новый торрент и запустить его у себя в клиенте вместо старого, при этом указать клиенту путь в старую папку куда и должно происходить скачивание новых серий.
Ваш клиент при этом должен произвести хеширование (проверку) старой папки (если не производит сам - помогите ему сделать это), и будет докачивать только те серии которых у вас ещё нет. Старые серии при этом не удаляются, а продолжают раздаваться!
Eсли вы уже удалили старые серии, то предотвратить повторную закачку старых серий можно, отжав галочку в соответствующих местах при запуске нового торрента. По возможности, желательно не удалять старые серии как можно дольше чтобы релизёр не столько продолжал раздавать старые серии, а смог сконцентрироваться на новых.
[cybertorrent.ru].t1496.torrent 
Торрент: Зарегистрирован [ 2019-03-27 16:23 ] · D3041B57511CBA15989524C5E7B47390154B091E

Скачать .torrent

Скачать

46 KB

Статус: проверено
Скачан: 0 раз
Размер: 8,77 GB
terms.php
[Профиль] [ЛС]
Показать сообщения:    
Ответить на тему

Текущее время: 17-Сен 19:05

Часовой пояс: UTC ± 0



Вы не можете начинать темы
Вы не можете отвечать на сообщения
Вы не можете редактировать свои сообщения
Вы не можете удалять свои сообщения
Вы не можете голосовать в опросах
Вы не можете прикреплять файлы к сообщениям
Вы можете скачивать файлы

Партнеры

Выражаем благодарность всем людям, внесшим вклад в наш сайт в далёком прошлом. Мы помним Вас, гордимся Вами и ждём Вас обратно!

Интересное в сети