Человек на Луне / First Man (Дэмьен Шазелл / Damien Chazelle) [2018, США, Драма, биография, история, BDRip-AVC] Dub + Sub Rus, Eng + Original Eng

Ответить на тему
Статистика раздачи
Размер:  3,86 GB   |    Зарегистрирован:  25 дней   |    Скачан:  0 раз

Полного источника не было: Никогда

   
 
Автор Сообщение

солнышко ®

Пол: Не указан

Стаж: 1 месяц 9 дней

Сообщений: 182

Создавать темы 27-Мар-2019 16:22

[Цитировать]

Человек на ЛунеFirst Man«Самая опасная миссия в истории» IMAX Edition
Страна: США
Жанр: Драма, биография, история
Год выпуска: 2018
Продолжительность: 02:21:00
Перевод: Профессиональный (дублированный) Blu-Ray_EUR
Субтитры: русские форсированные,русские полные,английские
Оригинальная аудиодорожка: английский
Режиссер: Дэмьен Шазелл / Damien Chazelle
В ролях: Клер Фой, Райан Гослинг, Пабло Шрайбер, Кристофер Эбботт, Итэн Эмбри, Киаран Хайндс, Джейсон Кларк, Кайл Чандлер, Кори Столл, Шей Уигэм
Описание: Судьба любит смельчаков, а Нил Армстронг однозначно принадлежит к их числу. Весь мир знает его имя, но мало кому известно, какой ценой астронавту дался маленький шаг, ставший огромным скачком для всего человечества.
Доп. информация:
Релиз группы:
Качество видео: BDRip-AVC | FIRST MAN_2018_BLU-RAY EUR_IMAX_IVTRACKER |
Формат видео: MKV
Видео: 1152x648 (16:9), 23,976 fps, 2 949 Кbps, 0.165 bit/pixe
Аудио: 48 kHz, AC3 Dolby Digital, 3/2 (L,C,R,l,r) + LFE ch, ~448.00 kbps avg DUB
Аудио 2: 48 kHz, AC3 Dolby Digital, 3/2 (L,C,R,l,r) + LFE ch, ~448.00 kbps avg ENG
Формат субтитров: softsub (SRT)
Доп. информация о субтитрах: отключаемые srt

MediaInfo

General
Unique ID : 5735896073036751938363361324014549314 (0x450B182B1E30BE33175B49D2AC8B942)
Complete name : F:\Мои рипы\Человек на Луне\First.Man by_IVAN@190282.mkv
Format : Matroska
Format version : Version 4 / Version 2
File size : 3.86 GiB
Duration : 2h 20mn
Overall bit rate : 3 923 Kbps
Movie name : First.Man by_IVAN@190282
Encoded date : UTC 2019-03-20 02:43:28
Writing application : mkvmerge v32.0.0 ('Astral Progressions') 64-bit
Writing library : libebml v1.3.7 + libmatroska v1.5.0
DURATION : 02:12:35.031000000
NUMBER_OF_FRAMES : 1596
NUMBER_OF_BYTES : 55157
_STATISTICS_WRITING_APP : mkvmerge v32.0.0 ('Astral Progressions') 64-bit
_STATISTICS_WRITING_DATE_UTC : 2019-03-20 02:43:28
_STATISTICS_TAGS : BPS DURATION NUMBER_OF_FRAMES NUMBER_OF_BYTES
Attachment : Yes
Video
ID : 1
Format : AVC
Format/Info : Advanced Video Codec
Format profile : High@L4.1
Format settings, CABAC : Yes
Format settings, ReFrames : 11 frames
Codec ID : V_MPEG4/ISO/AVC
Duration : 2h 20mn
Bit rate : 2 949 Kbps
Width : 1 152 pixels
Height : 648 pixels
Display aspect ratio : 16:9
Frame rate mode : Constant
Frame rate : 23.976 fps
Color space : YUV
Chroma subsampling : 4:2:0
Bit depth : 8 bits
Scan type : Progressive
Bits/(Pixel*Frame) : 0.165
Stream size : 2.90 GiB (75%)
Title : First.Man by_IVAN@190282
Writing library : x264 core 157 r2935 545de2f
Encoding settings : cabac=1 / ref=11 / deblock=1:-3:-3 / analyse=0x3:0x113 / me=umh / subme=11 / psy=1 / psy_rd=1.00:0.05 / mixed_ref=1 / me_range=48 / chroma_me=1 / trellis=2 / 8x8dct=1 / cqm=0 / deadzone=21,11 / fast_pskip=0 / chroma_qp_offset=-3 / threads=6 / lookahead_threads=6 / sliced_threads=0 / nr=0 / decimate=1 / interlaced=0 / bluray_compat=0 / constrained_intra=0 / bframes=16 / b_pyramid=2 / b_adapt=2 / b_bias=0 / direct=3 / weightb=1 / open_gop=0 / weightp=2 / keyint=240 / keyint_min=23 / scenecut=40 / intra_refresh=0 / rc_lookahead=60 / rc=crf / mbtree=0 / crf=20.3 / qcomp=0.60 / qpmin=0 / qpmax=69 / qpstep=4 / vbv_maxrate=50000 / vbv_bufsize=62500 / crf_max=0.0 / nal_hrd=none / filler=0 / ip_ratio=1.40 / pb_ratio=1.30 / aq=3:0.80
Language : English
Default : Yes
Forced : No
Color primaries : BT.709
Transfer characteristics : BT.709
Matrix coefficients : BT.709
DURATION : 02:20:59.910000000
NUMBER_OF_FRAMES : 202835
NUMBER_OF_BYTES : 3198192130
_STATISTICS_WRITING_APP : mkvmerge v32.0.0 ('Astral Progressions') 64-bit
_STATISTICS_WRITING_DATE_UTC : 2019-03-20 02:43:28
_STATISTICS_TAGS : BPS DURATION NUMBER_OF_FRAMES NUMBER_OF_BYTES
Audio #1
ID : 2
Format : AC-3
Format/Info : Audio Coding 3
Mode extension : CM (complete main)
Format settings, Endianness : Big
Codec ID : A_AC3
Duration : 2h 20mn
Bit rate mode : Constant
Bit rate : 448 Kbps
Channel(s) : 6 channels
Channel positions : Front: L C R, Side: L R, LFE
Sampling rate : 48.0 KHz
Bit depth : 16 bits
Compression mode : Lossy
Stream size : 452 MiB (11%)
Title : Blu-ray EUR
Language : Russian
Default : Yes
Forced : No
Audio #2
ID : 3
Format : AC-3
Format/Info : Audio Coding 3
Mode extension : CM (complete main)
Format settings, Endianness : Big
Codec ID : A_AC3
Duration : 2h 20mn
Bit rate mode : Constant
Bit rate : 448 Kbps
Channel(s) : 6 channels
Channel positions : Front: L C R, Side: L R, LFE
Sampling rate : 48.0 KHz
Bit depth : 16 bits
Compression mode : Lossy
Stream size : 452 MiB (11%)
Title : Eng
Language : English
Default : No
Forced : No
Text #1
ID : 4
Format : UTF-8
Codec ID : S_TEXT/UTF8
Codec ID/Info : UTF-8 Plain Text
Title : Rus forced
Language : Russian
Default : Yes
Forced : No
Text #2
ID : 5
Format : UTF-8
Codec ID : S_TEXT/UTF8
Codec ID/Info : UTF-8 Plain Text
Title : Rus
Language : Russian
Default : No
Forced : No
Text #3
ID : 6
Format : UTF-8
Codec ID : S_TEXT/UTF8
Codec ID/Info : UTF-8 Plain Text
Title : Eng full
Language : English
Default : No
Forced : No
Text #4
ID : 7
Format : UTF-8
Codec ID : S_TEXT/UTF8
Codec ID/Info : UTF-8 Plain Text
Title : Eng SDH
Language : English
Default : No
Forced : No
Menu
00:00:00.000 : en:00:00:00.000
00:07:20.440 : en:00:07:20.440
00:13:35.982 : en:00:13:35.982
00:19:53.192 : en:00:19:53.192
00:25:59.725 : en:00:25:59.725
00:31:30.138 : en:00:31:30.138
00:40:17.248 : en:00:40:17.248
00:49:57.703 : en:00:49:57.703
01:00:03.016 : en:01:00:03.016
01:05:42.397 : en:01:05:42.397
01:11:05.720 : en:01:11:05.720
01:15:12.967 : en:01:15:12.967
01:21:32.888 : en:01:21:32.888
01:30:35.305 : en:01:30:35.305
01:39:00.726 : en:01:39:00.726
01:48:58.490 : en:01:48:58.490
01:54:44.419 : en:01:54:44.419
02:00:14.916 : en:02:00:14.916
02:09:55.705 : en:02:09:55.705
02:14:02.743 : en:02:14:02.743

x264 log

x264 [info]: frame I:1254 Avg QP:14.86 size: 63504 PSNR Mean Y:48.50 U:51.24 V:52.27 Avg:49.29 Global:47.64
x264 [info]: frame P:41839 Avg QP:17.42 size: 29301 PSNR Mean Y:47.13 U:50.16 V:51.54 Avg:47.99 Global:46.39
x264 [info]: frame B:159742 Avg QP:19.43 size: 11848 PSNR Mean Y:46.52 U:49.85 V:51.39 Avg:47.42 Global:45.34
x264 [info]: consecutive B-frames: 3.1% 3.8% 7.4% 10.7% 11.5% 35.8% 6.5% 1.9% 2.8% 2.9% 3.2% 2.3% 2.6% 2.0% 1.3% 1.0% 1.3%
x264 [total]: encoded 202835 frames, 0.48 fps, 3001.33 kb/s

Скриншот c названием фильма

Скриншоты

Сравнения с исходником

Source by_IVAN@190282
http://screenshotcomparison.com/comparison/132878/picture:0
Убедительная просьба пожалуйста кто скачал не бросайте раздачу!!!

Если ваш рейтинг упадет ниже 0,3, вы не сможете скачивать торренты! Подробнее о рейтинге.

[cybertorrent.ru].t1503.torrent 
Торрент: Зарегистрирован [ 2019-03-27 16:23 ] · 45F4D6FCF34740130BC414C310F72A9F9AB3EED9

Скачать .torrent

Скачать

20 KB

Статус: проверено
Скачан: 0 раз
Размер: 3,86 GB
terms.php
[Профиль] [ЛС]
Показать сообщения:    
Ответить на тему

Текущее время: 21-Апр 18:54

Часовой пояс: UTC ± 0



Вы не можете начинать темы
Вы не можете отвечать на сообщения
Вы не можете редактировать свои сообщения
Вы не можете удалять свои сообщения
Вы не можете голосовать в опросах
Вы не можете прикреплять файлы к сообщениям
Вы можете скачивать файлы