Король и я / The King and I (Ричард Рич / Richard Rich) [1999, Анимационный, мюзикл, фэнтези, семейный, мультфильм, VHSRip-AVC] [Fullscreen] Dub (Варус-Видео)

Ответить на тему
Статистика раздачи
Размер:  1,88 GB   |    Зарегистрирован:  3 месяца 7 дней   |    Скачан:  0 раз

Полного источника не было: Никогда

   
 
Автор Сообщение

karlll ®

Пол: Не указан

Стаж: 3 месяца 13 дней

Сообщений: 127

Создавать темы 18-Мар-2019 10:02

[Цитировать]

Король и я / The King and I [Fullscreen]- Год выпуска: 1999
Страна: США
Жанр: Анимационный, мюзикл, фэнтези, семейный, мультфильм
Продолжительность: 01:25:21
Перевод: Профессиональный (дублированный) - Варус-Видео
Субтитры: нет-Режиссер: Ричард Рич / Richard Rich- -Роли озвучивали: Миранда Ричардсон, Кристиана Нолл, Мартин Видновик, Иэн Ричардсон, Даррел Хэммонд, Аллен Д. Хонг, Дэвид Бёрнхэм, Ами Арабе, Трэйси Веннер Уоррен, Адам Вайли, Шон Смит, Александра Лаи, Кэтерин Лаи, Роберт МакЭвелли, Тони Поуп, Эд Тротта-Описание: Героям этой увлекательной истории - отважной Анне Леоноуэнс и ее десятилетнему сыну Луису - предстоит отправиться в нелегкое, но захватывающее путешествие. На востоке, в далекой прекрасной стране, их ждет добрый и мудрый король. Но первый министр королевства во чтобы то ни стало хочет погубить бесстрашных путешественников при помощи обмана и колдовских чар...-Доп. информация: В отличие от раздающегося SATRip'а, в данном релизе титры до конца (с указанием студии дубляжа за кадром), более широкий частотный диапазон звуковой дорожки, меньше артефактов видео компрессии.-Релиз группы: -Семпл: http://sendfile.su/1454707-Качество: VHSRip-AVC
Формат: MKV
Видео: 700x566 (4:3) @ 748x566, 25.000 fps, AVC, ~2924 Kbps, 0.295 bits/pixel
Аудио: Russian, 48.0 KHz, AC3, 2 ch, 224 Kbps - Дубляж | Варус-Видео

MediaInfo

General
Unique ID : 175352386303934979209098491912898383302 (0x83EBA4231404139B7B3BB631FE128DC6)
Complete name : The King and I 1999 [Fullscreen] VHS.mkv
Format : Matroska
Format version : Version 4
File size : 1.88 GiB
Duration : 1 h 25 min
Overall bit rate : 3 159 kb/s
Encoded date : UTC 2018-11-11 11:09:30
Writing application : mkvmerge v28.0.0 ('Voice In My Head') 64-bit
Writing library : libebml v1.3.6 + libmatroska v1.4.9
Cover : Yes
Attachments : cover.JPG
Video
ID : 1
Format : AVC
Format/Info : Advanced Video Codec
Format profile : High@L4.1
Format settings : CABAC / 16 Ref Frames
Format settings, CABAC : Yes
Format settings, RefFrames : 16 frames
Codec ID : V_MPEG4/ISO/AVC
Duration : 1 h 25 min
Bit rate : 2 924 kb/s
Width : 700 pixels
Height : 566 pixels
Display aspect ratio : 4:3
Original display aspect ratio : 4:3
Frame rate mode : Constant
Frame rate : 25.000 FPS
Color space : YUV
Chroma subsampling : 4:2:0
Bit depth : 8 bits
Scan type : Progressive
Bits/(Pixel*Frame) : 0.295
Stream size : 1.74 GiB (93%)
Writing library : x264 core 152 r2851kMod ba24899
Encoding settings : cabac=1 / ref=16 / deblock=1:-3:-3 / analyse=0x3:0x133 / me=umh / subme=11 / psy=1 / fade_compensate=0.00 / psy_rd=1.00:0.00 / mixed_ref=1 / me_range=48 / chroma_me=1 / trellis=2 / 8x8dct=1 / cqm=0 / deadzone=21,11 / fast_pskip=0 / chroma_qp_offset=-2 / threads=12 / lookahead_threads=3 / sliced_threads=0 / nr=0 / decimate=1 / interlaced=0 / bluray_compat=0 / constrained_intra=0 / bframes=16 / b_pyramid=2 / b_adapt=2 / b_bias=0 / direct=3 / weightb=1 / open_gop=0 / weightp=0 / keyint=250 / keyint_min=25 / scenecut=40 / intra_refresh=0 / rc_lookahead=70 / rc=crf / mbtree=0 / crf=18.0000 / qcomp=0.60 / qpmin=0 / qpmax=69 / qpstep=4 / vbv_maxrate=50000 / vbv_bufsize=62500 / crf_max=0.0 / nal_hrd=none / filler=0 / ip_ratio=1.40 / pb_ratio=1.30 / aq=3:0.75
Default : Yes
Forced : No
Color range : Limited
Color primaries : BT.601 PAL
Transfer characteristics : BT.470 System B/G
Matrix coefficients : BT.470 System B/G
Audio
ID : 2
Format : AC-3
Format/Info : Audio Coding 3
Commercial name : Dolby Digital
Codec ID : A_AC3
Duration : 1 h 25 min
Bit rate mode : Constant
Bit rate : 224 kb/s
Channel(s) : 2 channels
Channel layout : L R
Sampling rate : 48.0 kHz
Frame rate : 31.250 FPS (1536 SPF)
Bit depth : 16 bits
Compression mode : Lossy
Stream size : 137 MiB (7%)
Title : Дубляж | Варус-Видео
Language : Russian
Service kind : Complete Main
Default : Yes
Forced : No

Скриншоты

Скан обложки

[cybertorrent.ru].t151.torrent 
Торрент: Зарегистрирован [ 2019-03-18 10:04 ] · 8E660D532502C04D7B19919CBE9C6847BF4D2722

Скачать .torrent

Скачать

19 KB

Статус: проверено
Скачан: 0 раз
Размер: 1,88 GB
terms.php
[Профиль] [ЛС]
Показать сообщения:    
Ответить на тему

Текущее время: 25-Июн 21:40

Часовой пояс: UTC ± 0



Вы не можете начинать темы
Вы не можете отвечать на сообщения
Вы не можете редактировать свои сообщения
Вы не можете удалять свои сообщения
Вы не можете голосовать в опросах
Вы не можете прикреплять файлы к сообщениям
Вы можете скачивать файлы