Миллиарды / Billions / Сезон: 4 / Серии: 1 из 12 (Колин Бакси, Джон Дал, Анна Боден) [2019, США, Драма, WEB-DLRip] MVO (AlexFilm) + Original + Sub (Rus, Eng)

Ответить на тему
Статистика раздачи
Размер:  749 MB   |    Зарегистрирован:  25 дней   |    Скачан:  0 раз

Полного источника не было: Никогда

   
 
Автор Сообщение

Рамфоринх ®

Пол: Не указан

Стаж: 1 месяц 9 дней

Сообщений: 167

Создавать темы 27-Мар-2019 16:22

[Цитировать]

Миллиарды | Billions- Год выпуска: 2019
Страна: США
Жанр: Драма
Продолжительность: ~ 01:00:00-Перевод: Профессиональный (многоголосый закадровый) | AlexFilm-Режиссёр: Колин Бакси, Джон Дал, Анна Боден-В ролях: Пол Джаматти, Дамиан Льюис, Джон Малкович, Азия Кэйт Диллон, Кристофер Денем, Кира Виссер, Роб Морроу, Зина Вилди, Дан Содер, Малачи Вейр, Дэниэл К. Исаак, Келли Окоин, Хадера Ильфенеш, Мэгги Сифф, Фрэнк Хартс, Малин Акерман, Джэк Гор, Дэвид Костабайл, Сьюзан Миснер, Тоби Леонард Мур, Кондола Рашад, Кристофер Пол Ричардс, Терри Кинни, Дэвид Кромер, Гленн Флешер, Айвен Мартин, Джеффри ДеМанн, Стивен Канкен, Нэйтан Дарроу, Сэм Гилрой
Описание: Непреклонный федеральный прокурор Чак Роудс (Пол Джаматти) и изобретательный король хедж-фондов Бобби Аксельрод (Дэмиэн Льюис) создадут убийственный альянс. Планы уничтожить друг друга никто не отменяет, их просто благоразумно отложат. Цель объединения непримиримых противников — разобраться со всеми врагами и предателями одним махом. Речь идет об опасном российском миллиардере Григоре Андолове (Джон Малкович), вероломной протеже Акса Тейлор Мейсон (Азия Кейт Диллон), правой руке Роудса Брайане Коннерти (Тоби Леонард Мур) и генпрокуроре Вейлоне Джоке Джеффко (Клэнси Браун). История красивая, но на деле не такая простая — это же «Миллиарды».-[box=#aed8ff,#003465]Ссылка на предыдущие и альтернативные раздачи[/box]- -Качество: WEB-DLRip
Формат: AVI
Видео: XviD, 720x400 (16:9), 23.976 кадров/сек, ~1500 Кбит/сек
Аудио Rus: AC3, 48,0 kHz, 2 ch, 192 Кбит/сек | AlexFilm
Аудио Eng: AC3, 48,0 kHz, 2 ch, 192 Кбит/сек
Субтитры: Русские (Forced, Full [Amedia]), английские (SDH)
Реклама: Отсутствует-

Список серий

01. Лучшая игра Чаки Роудса / Chucky Rhoades's Greatest Game
02. Возбуждающий шаблон / Arousal Template
-

MediaInfo

Общее
Полное имя : E:\Billions.S04E01.WEB-DLRip.RGzsRutracker.[Wentworth_Miller].avi
Формат : AVI
Формат/Информация : Audio Video Interleave
Размер файла : 749 Мбайт
Продолжительность : 54 м. 27 с.
Общий поток : 1923 Кбит/сек
Программа кодирования : VirtualDubMod 1.5.10.3 | www.virtualdub-fr.org || (build 2550/release)
Библиотека кодирования : VirtualDubMod build 2550/release
Видео
Идентификатор : 0
Формат : MPEG-4 Visual
Профиль формата : Advanced Simple@L5
Настройки формата : BVOP2
Параметр BVOP формата : 2
Параметр QPel формата : Нет
Параметр GMC формата : Без точки перехода
Параметр матрицы формата : Default (MPEG)
Идентификатор кодека : XVID
Идентификатор кодека/Подсказка : XviD
Продолжительность : 54 м. 27 с.
Битрейт : 1525 Кбит/сек
Ширина : 720 пикселей
Высота : 400 пикселей
Соотношение сторон : 16:9
Частота кадров : 23,976 (24000/1001) кадра/сек
Цветовое пространство : YUV
Субдискретизация насыщенности : 4:2:0
Битовая глубина : 8 бит
Тип развёртки : Прогрессивная
Метод сжатия : С потерями
Бит/(Пиксели*Кадры) : 0.221
Размер потока : 594 Мбайт (79%)
Библиотека кодирования : XviD 73
Аудио #1
Идентификатор : 1
Формат : AC-3
Формат/Информация : Audio Coding 3
Коммерческое название : Dolby Digital
Идентификатор кодека : 2000
Продолжительность : 54 м. 26 с.
Вид битрейта : Постоянный
Битрейт : 192 Кбит/сек
Каналы : 2 канала
Channel layout : L R
Частота : 48,0 КГц
Частота кадров : 31,250 кадров/сек (1536 SPF)
Битовая глубина : 16 бит
Метод сжатия : С потерями
Размер потока : 74,8 Мбайт (10%)
Выравнивание : Разделение по промежуткам
Продолжительность промежутка : 42 мс. (1,00 видеокадр)
Время предзагрузки промежутка : 500 мс.
ServiceKind/String : Complete Main
Аудио #2
Идентификатор : 2
Формат : AC-3
Формат/Информация : Audio Coding 3
Коммерческое название : Dolby Digital
Идентификатор кодека : 2000
Продолжительность : 54 м. 27 с.
Вид битрейта : Постоянный
Битрейт : 192 Кбит/сек
Каналы : 2 канала
Channel layout : L R
Частота : 48,0 КГц
Частота кадров : 31,250 кадров/сек (1536 SPF)
Битовая глубина : 16 бит
Метод сжатия : С потерями
Размер потока : 74,8 Мбайт (10%)
Выравнивание : Разделение по промежуткам
Продолжительность промежутка : 42 мс. (1,00 видеокадр)
Время предзагрузки промежутка : 500 мс.
ServiceKind/String : Complete Main
-

Скриншоты

-

Внимание! Раздача ведётся путём добавления новых серий

Внимание! Раздача ведётся путём добавления новых серий; при каждом добавлении создаётся новый торрент. Чтобы начать докачку новой серии, пользователям необходимо сделать следующее:
(1) остановить скачивание,
(2) удалить старый торрент у себя из клиента (старые серии удалять не надо),
(3) скачать новый торрент и запустить его у себя в клиенте вместо старого, при этом указать клиенту путь в старую папку куда и должно происходить скачивание новых серий.
Ваш клиент при этом должен произвести хеширование (проверку) старой папки (если не производит сам - помогите ему сделать это), и будет докачивать только те серии которых у вас ещё нет. Старые серии при этом не удаляются, а продолжают раздаваться!
Eсли вы уже удалили старые серии, то предотвратить повторную закачку старых серий можно, отжав галочку в соответствующих местах при запуске нового торрента. По возможности, желательно не удалять старые серии как можно дольше чтобы релизёр не столько продолжал раздавать старые серии, а смог сконцентрироваться на новых.
-Релиз группы:

Если ваш рейтинг упадет ниже 0,3, вы не сможете скачивать торренты! Подробнее о рейтинге.

[cybertorrent.ru].t1512.torrent 
Торрент: Зарегистрирован [ 2019-03-27 16:23 ] · 2BE8C4D203D0E6F01BA610C4E2EDFEA86473532B

Скачать .torrent

Скачать

15 KB

Статус: проверено
Скачан: 0 раз
Размер: 749 MB
terms.php
[Профиль] [ЛС]
Показать сообщения:    
Ответить на тему

Текущее время: 21-Апр 18:31

Часовой пояс: UTC ± 0



Вы не можете начинать темы
Вы не можете отвечать на сообщения
Вы не можете редактировать свои сообщения
Вы не можете удалять свои сообщения
Вы не можете голосовать в опросах
Вы не можете прикреплять файлы к сообщениям
Вы можете скачивать файлы