Земля до начала времен 10: Великая миграция / The Land Before Time X: The Great Longneck Migration (Чарльз Гросвенор / Charles Grosvenor) [2003, США, мультфильм, детский, семейный, приключения, DVDRip] AVO (Дольский)

Ответить на тему
Статистика раздачи
Размер:  1,35 GB   |    Зарегистрирован:  2 месяца 7 дней   |    Скачан:  0 раз

Полного источника не было: Никогда

   
 
Автор Сообщение

karlll ®

Пол: Не указан

Стаж: 2 месяца 13 дней

Сообщений: 100

Создавать темы 18-Мар-2019 10:02

[Цитировать]

Земля до начала времен 10: Великая миграция / Земля до начала времени 10: Великая миграция Длинношеих / The Land Before Time X: The Great Longneck Migration
Страна: США
Жанр: мультфильм, детский, семейный, приключения
Продолжительность: 01:20:43
Год выпуска: 2003
Перевод: Авторский (одноголосый закадровый) Андрей Дольский
Русские субтитры: нет
Режиссёр: Чарльз Гросвенор / Charles Grosvenor
Роли озвучивали: Джон Ингл, Алек Медлок, Кеннет Марс, Мириам Флинн, Ария Ноэль, Курзон, Джефф Беннетт, Роб Полсен, Энди МакЭфи, Брэндон де Пол, Джеймс Гарнер
Описание: Нашего героя, неугомонного Крошки-Ножки, и компанию его друзей-динозавриков ждет невероятное путешествие, исполненное потрясающих сюрпризов и удивительных открытий. Наши забавные озорники-приятели станут свидетелями многих чудес и, конечно же, самого большого сборища доисторических ящеров, где Крошки-Ножки ждет потрясающая встреча с одним особенным Длинношеем Динозавром, которого наш малыш совершенно не рассчитывал увидеть!
Доп. информация: Дорожка с А. Дольским синхронизирована и наложена ale_x2008 при помощи Adobe
Audition, Sony Vegas и VirtualDubMod. Восстановлено перегруженное аудио (-2 db)
За оцифрованную с VHS дорожку благодарим - alenavova

Релиз
Качество: DVDRip
Формат: AVI
Видео: XviD build 63, 720x544 (1.32:1), 25 fps, 1957 kbps avg, 0.2 bit/pixel
Аудио 1: Русский 48 kHz, AC3 Dolby Digital, 2/0 (L,R) ch, 192 kbps - Дольский (стерео)
Аудио 2: English 48 kHz, AC3 Dolby Digital, 2/0 (L,R) ch, 224 kbps
Субтитры: отсутствуют

Подробные технические данные

Земля до начала времен 10 - Великая миграция (The Land Before Time X - The Great Longneck Migration) [by ale_x2008].avi
Format : AVI
Format/Info : Audio Video Interleave
File size : 1.35 GiB
Duration : 1 h 20 min
Overall bit rate : 2 389 kb/s
Movie name : Земля до начала времен 10 - Великая миграция (The Land Before Time X - The Great Longneck Migration) [by ale_x2008]
Director : by ale_x2008
Writing application : VirtualDubMod 1.5.10.2 (build 2540/release)
Copyright : Edich2
Comment : Rutracker.org
Video
ID : 0
Format : MPEG-4 Visual
Format profile : Advanced Simple@L5
Format settings : BVOP1 / Custom Matrix
Format settings, BVOP : 1
Format settings, QPel : No
Format settings, GMC : No warppoints
Format settings, Matrix : Custom
Codec ID : XVID
Codec ID/Hint : XviD
Duration : 1 h 20 min
Bit rate : 1 958 kb/s
Width : 720 pixels
Height : 544 pixels
Display aspect ratio : 4:3
Frame rate : 25.000 FPS
Color space : YUV
Chroma subsampling : 4:2:0
Bit depth : 8 bits
Scan type : Progressive
Compression mode : Lossy
Bits/(Pixel*Frame) : 0.200
Stream size : 1.10 GiB (82%)
Writing library : XviD 63
Audio #1
ID : 1
Format : AC-3
Format/Info : Audio Coding 3
Codec ID : 2000
Duration : 1 h 20 min
Bit rate mode : Constant
Bit rate : 192 kb/s
Channel(s) : 2 channels
Channel positions : Front: L R
Sampling rate : 48.0 kHz
Frame rate : 31.250 FPS (1536 SPF)
Bit depth : 16 bits
Compression mode : Lossy
Stream size : 111 MiB (8%)
Alignment : Split accross interleaves
Interleave, duration : 40 ms (1.00 video frame)
Interleave, preload duratio : 500 ms
Service kind : Complete Main
Audio #2
ID : 2
Format : AC-3
Format/Info : Audio Coding 3
Codec ID : 2000
Duration : 1 h 20 min
Bit rate mode : Constant
Bit rate : 224 kb/s
Channel(s) : 2 channels
Channel positions : Front: L R
Sampling rate : 48.0 kHz
Frame rate : 31.250 FPS (1536 SPF)
Bit depth : 16 bits
Compression mode : Lossy
Delay relative to video : 16 ms
Stream size : 129 MiB (9%)
Alignment : Split accross interleaves
Interleave, duration : 40 ms (1.00 video frame)
Interleave, preload duratio : 500 ms
Service kind : Complete Main

Скриншоты


[cybertorrent.ru].t155.torrent 
Торрент: Зарегистрирован [ 2019-03-18 10:04 ] · 927882AEFB46992C331E2BBED188B6F0A2330F56

Скачать .torrent

Скачать

14 KB

Статус: проверено
Скачан: 0 раз
Размер: 1,35 GB
terms.php
[Профиль] [ЛС]
Показать сообщения:    
Ответить на тему

Текущее время: 25-Май 15:54

Часовой пояс: UTC ± 0



Вы не можете начинать темы
Вы не можете отвечать на сообщения
Вы не можете редактировать свои сообщения
Вы не можете удалять свои сообщения
Вы не можете голосовать в опросах
Вы не можете прикреплять файлы к сообщениям
Вы можете скачивать файлы