Том и Джерри: Фильм / Tom and Jerry: The Movie (Фил Роман / Phil Roman) [1992, США, Германия, мультфильм, DVDRip] AVO (Дольский №2)

Ответить на тему
Статистика раздачи
Размер:  1,39 GB   |    Зарегистрирован:  4 месяца   |    Скачан:  0 раз

Полного источника не было: Никогда

   
 
Автор Сообщение

karlll ®

Пол: Не указан

Стаж: 4 месяца 6 дней

Сообщений: 149

Создавать темы 18-Мар-2019 10:02

[Цитировать]

Том и Джерри: Фильм / Tom and Jerry: The Movie
«To Save The Life Of A Young Girl, This Cat And Mouse Will Have To Do The Impossible. They'll Have To Get Along»
Страна: США, Германия
Жанр: мультфильм
Продолжительность: 01:24:15
Год выпуска: 1992
Перевод: Авторский (одноголосый закадровый) Андрей Дольский (другой вариант)
Русские субтитры: нет
Режиссёр: Фил Роман / Phil Roman
Роли озвучивали: Ричард Кайнд, Дэна Хилл, Энди МакЭфи, Тони Джей, Рип Тейлор, Генри Гибсон, Майкл Белл, Эд Гилберт, Дэвид Л. Лэндер, Ховард Моррис
Описание: Неугомонная парочка отважных друзей в полнометражном мультфильме «Том и Джерри». Здесь они не гоняются друг за другом, а помогают маленькой девочке найти пропавшего. Но не думайте, что вам будет скучно. Ведь это Том и Джерри! Погони, море опасностей, злые козни старой тетки. Неповторимый юмор и радость от общения с любимыми героями!
Доп. информация: Дорожка с А. Дольским синхронизирована и наложена ale_x2008 при помощи Sony Vegas и VirtualDubMod.
За оцифрованную с VHS дорожку благодарим - alenavova

Релиз
Семпл: https://yadi.sk/i/zWUr6tJymILA0w
Качество: DVDRip
Формат: AVI
Видео: XviD build 73, 640x480 (1.33:1), 23.976 fps, 1955 kbps avg, 0.27 bit/pixel
Аудио 1: Русский AC3 Dolby Digital, 48000Hz 2/0 (L,R) ch (mono), 192 kbps avg
Аудио 2: Английский AC3 Dolby Digital, 48000Hz 2/0 (L,R) ch, 192 kbps avg
Субтитры: отсутствуют

Подробные технические данные

Том и Джерри Фильм - Tom and Jerry The Movie (by ale_x2008).avi
Format : AVI
Format/Info : Audio Video Interleave
File size : 1.39 GiB
Duration : 1 h 24 min
Overall bit rate : 2 354 kb/s
Movie name : Том и Джерри Фильм - Tom and Jerry The Movie (1992)
Director : by ale_x2008
Writing application : VirtualDubMod 1.5.10.2 (build 2540/release)
Copyright : Edich2
Comment : Rutracker.org
Video
ID : 0
Format : MPEG-4 Visual
Format profile : Advanced Simple@L5
Format settings : BVOP1 / Custom Matrix
Format settings, BVOP : 1
Format settings, QPel : No
Format settings, GMC : No warppoints
Format settings, Matrix : Custom
Codec ID : XVID
Codec ID/Hint : XviD
Duration : 1 h 24 min
Bit rate : 1 955 kb/s
Width : 640 pixels
Height : 480 pixels
Display aspect ratio : 4:3
Frame rate : 23.976 (24000/1001) FPS
Color space : YUV
Chroma subsampling : 4:2:0
Bit depth : 8 bits
Scan type : Progressive
Compression mode : Lossy
Bits/(Pixel*Frame) : 0.265
Stream size : 1.15 GiB (83%)
Writing library : XviD 73
Audio #1
ID : 1
Format : AC-3
Format/Info : Audio Coding 3
Codec ID : 2000
Duration : 1 h 24 min
Bit rate mode : Constant
Bit rate : 192 kb/s
Channel(s) : 2 channels
Channel positions : Front: L R
Sampling rate : 48.0 kHz
Frame rate : 31.250 FPS (1536 SPF)
Bit depth : 16 bits
Compression mode : Lossy
Stream size : 116 MiB (8%)
Alignment : Split accross interleaves
Interleave, duration : 42 ms (1.00 video frame)
Interleave, preload duratio : 500 ms
Service kind : Complete Main
Audio #2
ID : 2
Format : AC-3
Format/Info : Audio Coding 3
Codec ID : 2000
Duration : 1 h 24 min
Bit rate mode : Constant
Bit rate : 192 kb/s
Channel(s) : 2 channels
Channel positions : Front: L R
Sampling rate : 48.0 kHz
Frame rate : 31.250 FPS (1536 SPF)
Bit depth : 16 bits
Compression mode : Lossy
Stream size : 116 MiB (8%)
Alignment : Split accross interleaves
Interleave, duration : 42 ms (1.00 video frame)
Interleave, preload duratio : 500 ms
Service kind : Complete Main

Скриншоты


[cybertorrent.ru].t156.torrent 
Торрент: Зарегистрирован [ 2019-03-18 10:04 ] · 7F869814CB8EA1A133B77E02AEE38A264F84516F

Скачать .torrent

Скачать

14 KB

Статус: проверено
Скачан: 0 раз
Размер: 1,39 GB
terms.php
[Профиль] [ЛС]
Показать сообщения:    
Ответить на тему

Текущее время: 19-Июл 00:05

Часовой пояс: UTC ± 0



Вы не можете начинать темы
Вы не можете отвечать на сообщения
Вы не можете редактировать свои сообщения
Вы не можете удалять свои сообщения
Вы не можете голосовать в опросах
Вы не можете прикреплять файлы к сообщениям
Вы можете скачивать файлы