Храбрый Назар / Քաջ Նազար (Роберт Саакянц) [1980, СССР, мультфильм, VHSRip]

Ответить на тему
Статистика раздачи
Размер:  196 MB   |    Зарегистрирован:  1 месяц 6 дней   |    Скачан:  0 раз

Полного источника не было: Никогда

   
 
Автор Сообщение

xelon ®

Пол: Не указан

Стаж: 1 месяц 12 дней

Сообщений: 60

Создавать темы 18-Мар-2019 10:01

[Цитировать]

Храбрый Назар / Քաջ Նազար
Страна: СССР (Армянская республика)
Жанр: мультфильм
Продолжительность: 00:15:19
Год выпуска: 1980
Перевод: профессиональный (одноголосый закадровый) Г.Бардин
Русские субтитры: нет
Режиссёр: Роберт Саакянц
Описание: По мотивам народной сказки.
Глупый крестьянин Назар любит хвастаться, что он непобедимый воин. Поверив в собственную ложь, однажды он садится на осла и отправляется сражаться с великанами...
Качество: VHSRip
Формат: AVI
Видео: 1586 kbps, 704х528 (4:3), 25.000 fps, MPEG-4 Visual (XviD)
Аудио: 192 kbps, 44.1 kHz, 2 channels, MPEG Audio (MP3)
Субтитры: отсутствуют

Подробные технические данные

General
Complete name : Храбрый Назар (1980).avi
Format : AVI
Format/Info : Audio Video Interleave
File size : 196 MiB
Duration : 15mn 19s
Overall bit rate : 1 791 Kbps
Writing application : Lavf57.41.100
Writing library : VirtualDub build 35491/release
Video
ID : 0
Format : MPEG-4 Visual
Format profile : Advanced Simple@L5
Format settings, BVOP : 2
Format settings, QPel : No
Format settings, GMC : No warppoints
Format settings, Matrix : Default (H.263)
Codec ID : XVID
Codec ID/Hint : XviD
Duration : 15mn 19s
Bit rate : 1 586 Kbps
Width : 704 pixels
Height : 528 pixels
Display aspect ratio : 4:3
Frame rate : 25.000 fps
Color space : YUV
Chroma subsampling : 4:2:0
Bit depth : 8 bits
Scan type : Progressive
Compression mode : Lossy
Bits/(Pixel*Frame) : 0.171
Stream size : 174 MiB (89%)
Writing library : XviD 73
Audio
ID : 1
Format : MPEG Audio
Format version : Version 1
Format profile : Layer 3
Mode : Joint stereo
Mode extension : MS Stereo
Codec ID : 55
Codec ID/Hint : MP3
Duration : 15mn 19s
Bit rate mode : Constant
Bit rate : 192 Kbps
Channel(s) : 2 channels
Sampling rate : 44.1 KHz
Compression mode : Lossy
Stream size : 21.1 MiB (11%)
Alignment : Aligned on interleaves
Interleave, duration : 26 ms (0.65 video frame)
Interleave, preload duration : 522 ms
Writing library : LAME3.99.5

Скриншоты

Если ваш рейтинг упадет ниже 0,3, вы не сможете скачивать торренты! Подробнее о рейтинге.

[cybertorrent.ru].t157.torrent 
Торрент: Зарегистрирован [ 2019-03-18 10:04 ] · 2498F85460E3FA5B7AF4C4E11898559E9099F98F

Скачать .torrent

Скачать

16 KB

Статус: проверено
Скачан: 0 раз
Размер: 196 MB
terms.php
[Профиль] [ЛС]
Показать сообщения:    
Ответить на тему

Текущее время: 24-Апр 18:32

Часовой пояс: UTC ± 0



Вы не можете начинать темы
Вы не можете отвечать на сообщения
Вы не можете редактировать свои сообщения
Вы не можете удалять свои сообщения
Вы не можете голосовать в опросах
Вы не можете прикреплять файлы к сообщениям
Вы можете скачивать файлы