Айка (Сергей Дворцевой) [2018, Россия, Германия, Польша, Китай, Казахстан, драма, WEB-DLRip-AVC]

Ответить на тему
Статистика раздачи
Размер:  2,91 GB   |    Зарегистрирован:  5 месяцев 15 дней   |    Скачан:  0 раз

Полного источника не было: Никогда

   
 
Автор Сообщение

Rodin ®

Пол: Не указан

Стаж: 6 месяцев 2 дня

Сообщений: 262

Создавать темы 30-Мар-2019 15:35

[Цитировать]

Айка- Год выпуска: 2018
Страна: Россия, Германия, Польша, Китай, Казахстан
Жанр: драма-Продолжительность: 01:53:36
Перевод: Студийный (одноголосый закадровый) С. Дворцевой (на киргизский)
Субтитры: нет
Оригинальная аудиодорожка: русский, киргизский-Режиссёр: Сергей Дворцевой
В ролях: Самал Еслямова, Сергей Мазур, Давид Алавердян, Вячеслав Агашкин, Анастасия Марчук, Жыпаргуль Абдилаева, Асхат Кучинчиреков, Азамат Сатинбаев, Андрей Колядов, Лариса Фирсова, Полина Северная и др.-Описание: Молодая девушка, приехавшая в холодную Москву на заработки, вынуждена оставить своего новорожденного ребенка в роддоме. Однако вскоре ей предстоит понять, способна ли она смириться с разлукой…-КиноПоиск | IMDb | Sample-Качество: WEB-DLRip-AVC (Источник: WEB-DL 1080p)
Формат: MKV
Видео: x264, 960x540 (16:9), 24.000 fps, ~3280 kbps avg, 0.264 bit/pixel
Аудио: Русский 48.0 KHz, АC3, 3/2 (L,C,R,l,r) + LFE ch, ~384.00 kbps avg |Original|-

Релиз


Рип - whip93.

MediaInfo | x264 log

x264 log

---[Information] [23.03.2019 14:00:02] raw [info]: 960x540p 1:1 @ 24/1 fps (cfr)
---[Information] [23.03.2019 14:00:02] x264 [info]: using SAR=1/1
---[Information] [23.03.2019 14:00:02] x264 [info]: using cpu capabilities: MMX2 SSE2Fast SSSE3 SSE4.2 AVX
---[Information] [23.03.2019 14:00:02] x264 [info]: profile High, level 4.1, 4:2:0, 8-bit
---[Information] [23.03.2019 19:38:46] x264 [info]: frame I:707 Avg QP:16.94 size: 47539
---[Information] [23.03.2019 19:38:46] x264 [info]: frame P:40553 Avg QP:19.51 size: 28144
---[Information] [23.03.2019 19:38:46] x264 [info]: frame B:122323 Avg QP:21.64 size: 13223
---[Information] [23.03.2019 19:38:46] x264 [info]: consecutive B-frames: 1.4% 4.0% 10.4% 46.6% 17.7% 16.4% 1.6% 0.6% 0.2% 0.2% 1.0%
---[Information] [23.03.2019 19:38:46] x264 [info]: mb I I16..4: 4.5% 86.6% 8.9%
---[Information] [23.03.2019 19:38:46] x264 [info]: mb P I16..4: 0.5% 22.0% 1.3% P16..4: 38.5% 28.1% 5.5% 0.8% 0.0% skip: 3.3%
---[Information] [23.03.2019 19:38:46] x264 [info]: mb B I16..4: 0.1% 2.3% 0.2% B16..8: 39.4% 23.3% 4.7% direct:10.6% skip:19.4% L0:43.4% L1:46.0% BI:10.5%
---[Information] [23.03.2019 19:38:46] x264 [info]: 8x8 transform intra:91.9% inter:62.5%
---[Information] [23.03.2019 19:38:46] x264 [info]: coded y,uvDC,uvAC intra: 95.6% 58.1% 17.3% inter: 45.1% 13.9% 0.2%
---[Information] [23.03.2019 19:38:46] x264 [info]: i16 v,h,dc,p: 25% 16% 6% 53%
---[Information] [23.03.2019 19:38:46] x264 [info]: i8 v,h,dc,ddl,ddr,vr,hd,vl,hu: 7% 6% 5% 11% 16% 14% 15% 12% 14%
---[Information] [23.03.2019 19:38:46] x264 [info]: i4 v,h,dc,ddl,ddr,vr,hd,vl,hu: 11% 7% 4% 8% 16% 15% 15% 11% 13%
---[Information] [23.03.2019 19:38:46] x264 [info]: i8c dc,h,v,p: 39% 32% 18% 11%
---[Information] [23.03.2019 19:38:46] x264 [info]: Weighted P-Frames: Y:2.3% UV:0.6%
---[Information] [23.03.2019 19:38:46] x264 [info]: ref P L0: 44.5% 4.3% 16.6% 6.7% 5.6% 3.9% 3.6% 2.3% 2.2% 1.8% 1.7% 1.5% 1.5% 1.3% 1.3% 1.1%
---[Information] [23.03.2019 19:38:46] x264 [info]: ref B L0: 78.5% 9.4% 4.0% 1.9% 1.4% 1.1% 0.9% 0.6% 0.5% 0.4% 0.4% 0.3% 0.3% 0.2% 0.1%
---[Information] [23.03.2019 19:38:46] x264 [info]: ref B L1: 96.3% 3.7%
---[Information] [23.03.2019 19:38:46] x264 [info]: kb/s:3277.52
---[Information] [23.03.2019 19:38:46] encoded 163583 frames, 8.05 fps, 3277.52 kb/s
General
Unique ID : 41743088991744323067785304899869396761 (0x1F676D2F7FFE9D94ABCD82D00022CF19)
Complete name : C:\Фильмы\Айка.2018.WEB-DLRip.DD5.1.x264.-whip93.mkv
Format : Matroska
Format version : Version 4
File size : 2.91 GiB
Duration : 1 h 53 min
Overall bit rate : 3 663 kb/s
Movie name : Айка (2018) - Release by whip93
Encoded date : UTC 2019-03-23 16:55:02
Writing application : mkvmerge v31.0.0 ('Dolores In A Shoestand') 64-bit
Writing library : libebml v1.3.6 + libmatroska v1.4.9
Video
ID : 1
Format : AVC
Format/Info : Advanced Video Codec
Format profile : High@L4.1
Format settings : CABAC / 16 Ref Frames
Format settings, CABAC : Yes
Format settings, ReFrames : 16 frames
Codec ID : V_MPEG4/ISO/AVC
Duration : 1 h 53 min
Bit rate : 3 280 kb/s
Width : 960 pixels
Height : 540 pixels
Display aspect ratio : 16:9
Frame rate mode : Constant
Frame rate : 24.000 FPS
Color space : YUV
Chroma subsampling : 4:2:0
Bit depth : 8 bits
Scan type : Progressive
Bits/(Pixel*Frame) : 0.264
Stream size : 2.60 GiB (89%)
Title : Encoded by whip93
Writing library : x264 core 157 r2932 303c484
Encoding settings : cabac=1 / ref=16 / deblock=1:-3:-3 / analyse=0x3:0x133 / me=umh / subme=11 / psy=1 / psy_rd=1.00:0.00 / mixed_ref=0 / me_range=32 / chroma_me=1 / trellis=2 / 8x8dct=1 / cqm=0 / deadzone=21,11 / fast_pskip=0 / chroma_qp_offset=-2 / threads=12 / lookahead_threads=3 / sliced_threads=0 / nr=0 / decimate=1 / interlaced=0 / bluray_compat=0 / constrained_intra=0 / bframes=10 / b_pyramid=2 / b_adapt=2 / b_bias=0 / direct=1 / weightb=1 / open_gop=0 / weightp=2 / keyint=240 / keyint_min=24 / scenecut=40 / intra_refresh=0 / rc_lookahead=90 / rc=2pass / mbtree=0 / bitrate=3280 / ratetol=1.0 / qcomp=0.72 / qpmin=0 / qpmax=69 / qpstep=4 / cplxblur=20.0 / qblur=0.5 / vbv_maxrate=62500 / vbv_bufsize=78125 / nal_hrd=none / filler=0 / ip_ratio=1.40 / pb_ratio=1.30 / aq=3:0.80
Language : Russian
Default : Yes
Forced : No
Color range : Limited
Color primaries : BT.709
Transfer characteristics : BT.709
Matrix coefficients : BT.709
Audio
ID : 2
Format : AC-3
Format/Info : Audio Coding 3
Commercial name : Dolby Digital
Codec ID : A_AC3
Duration : 1 h 53 min
Bit rate mode : Constant
Bit rate : 384 kb/s
Channel(s) : 6 channels
Channel layout : L R C LFE Ls Rs
Sampling rate : 48.0 kHz
Frame rate : 31.250 FPS (1536 SPF)
Bit depth : 16 bits
Compression mode : Lossy
Stream size : 312 MiB (10%)
Title : Original + VO
Language : Russian
Service kind : Complete Main
Default : Yes
Forced : No

Скриншоты

-
[cybertorrent.ru].t1584.torrent 
Торрент: Зарегистрирован [ 2019-03-30 15:36 ] · B6455056CAFC86DD4E42C653E0AA72FAF2C95DE7

Скачать .torrent

Скачать

30 KB

Статус: проверено
Скачан: 0 раз
Размер: 2,91 GB
terms.php
[Профиль] [ЛС]
Показать сообщения:    
Ответить на тему

Текущее время: 15-Сен 10:31

Часовой пояс: UTC ± 0



Вы не можете начинать темы
Вы не можете отвечать на сообщения
Вы не можете редактировать свои сообщения
Вы не можете удалять свои сообщения
Вы не можете голосовать в опросах
Вы не можете прикреплять файлы к сообщениям
Вы можете скачивать файлы

Партнеры

Выражаем благодарность всем людям, внесшим вклад в наш сайт в далёком прошлом. Мы помним Вас, гордимся Вами и ждём Вас обратно!

Интересное в сети