Дуэль (Николай Шпиковский) [1934, комедия, DVB]

Ответить на тему
Статистика раздачи
Размер:  848 MB   |    Зарегистрирован:  5 месяцев 18 дней   |    Скачан:  0 раз

Полного источника не было: Никогда

   
 
Автор Сообщение

edich ®

Пол: Не указан

Стаж: 6 месяцев 5 дней

Сообщений: 173

Создавать темы 30-Мар-2019 15:35

[Цитировать]

Дуэль
Жанр: комедия
Год выпуска: 1934
Продолжительность: 00:16:12
Режиссёр: Николай Шпиковский
В ролях: Т. Котельникова, Петр Савин, Александр Звенигорский
Описание: за Диной ухаживают Федя и Валентин. Она решает проверить, кто любит ее больше и предлагает каждому застрелиться ради любви...
Доп. информация: запись потока *.ts со спутника Экспресс АМ7, 40° в.д., ремукс в *.mkv программой VideoReDo.
Качество видео: DVB
Формат видео: MKV
Видео: MPEG2 Video, 1024(768)x576 (4:3), 25,000 кадров/сек, 5012 Кбит/сек
Аудио: MPEG Audio, 48,0 КГц, 256 Кбит/сек, 2 канала

MediaInfo

Общее
Уникальный идентификатор : 136975067527096906216071022317401263720 (0x670C703C31B4593C574CCEA9B673CE68)
Полное имя : D:\Torrent\ДУЭЛЬ\ДУЭЛЬ 16Х9 (Kultura 53).mkv
Формат : Matroska
Версия формата : Version 2
Размер файла : 623 Мбайт
Продолжительность : 16 м. 12 с.
Режим общего битрейта : Переменный
Общий поток : 5374 Кбит/сек
Программа кодирования : Lavf52.64.2
Библиотека кодирования : Lavf52.64.2
Видео
Идентификатор : 1
Формат : MPEG Video
Версия формата : Version 2
Профиль формата : Main@Main
Параметр BVOP формата : Да
Параметр матрицы формата : Выборочная
Параметр GOP формата : M=3, N=15
Структура изображения : Frame
Идентификатор кодека : V_MPEG2
Идентификатор кодека/Информация : MPEG 1 or 2 Video
Продолжительность : 16 м. 12 с.
Вид битрейта : Переменный
Битрейт : 5011 Кбит/сек
Максимальный битрейт : 15,0 Мбит/сек
Ширина : 720 пикселей
Высота : 576 пикселей
Соотношение сторон : 16:9
Соотношение сторон в оригинале : 16:9
Режим частоты кадров : Постоянный
Частота кадров : 25,000 кадров/сек
Стандарт вещания : PAL
Цветовое пространство : YUV
Субдискретизация насыщенности : 4:2:0
Битовая глубина : 8 бит
Тип развёртки : Чересстрочная
Порядок развёртки : Верхнее поле первое
Метод сжатия : С потерями
Бит/(Пиксели*Кадры) : 0.483
Размер потока : 581 Мбайт (93%)
Default : Да
Forced : Нет
Аудио
Идентификатор : 2
Формат : MPEG Audio
Версия формата : Version 1
Профиль формата : Layer 2
Идентификатор кодека : A_MPEG/L2
Идентификатор кодека/Подсказка : MP2
Продолжительность : 16 м. 12 с.
Вид битрейта : Постоянный
Битрейт : 256 Кбит/сек
Каналы : 2 канала
Частота : 48,0 КГц
Метод сжатия : С потерями
Задержка видео : 6 мс.
Размер потока : 29,7 Мбайт (5%)
Язык : English
Default : Да
Forced : Нет

Скриншоты

[cybertorrent.ru].t1586.torrent 
Торрент: Зарегистрирован [ 2019-03-30 15:36 ] · 58F2F8465BD9B7A7EF924DE30722C49ABCD898C0

Скачать .torrent

Скачать

17 KB

Статус: проверено
Скачан: 0 раз
Размер: 848 MB
terms.php
[Профиль] [ЛС]
Показать сообщения:    
Ответить на тему

Текущее время: 17-Сен 19:17

Часовой пояс: UTC ± 0



Вы не можете начинать темы
Вы не можете отвечать на сообщения
Вы не можете редактировать свои сообщения
Вы не можете удалять свои сообщения
Вы не можете голосовать в опросах
Вы не можете прикреплять файлы к сообщениям
Вы можете скачивать файлы

Партнеры

Выражаем благодарность всем людям, внесшим вклад в наш сайт в далёком прошлом. Мы помним Вас, гордимся Вами и ждём Вас обратно!

Интересное в сети