Чай (Анна Кузьминых) [2016, короткометражка, драма, WEBRip]

Ответить на тему
Статистика раздачи
Размер:  191 MB   |    Зарегистрирован:  4 месяца 19 дней   |    Скачан:  0 раз

Полного источника не было: Никогда

   
 
Автор Сообщение

Rodin ®

Пол: Не указан

Стаж: 5 месяцев 6 дней

Сообщений: 226

Создавать темы 30-Мар-2019 15:35

[Цитировать]

Чай Жанр: короткометражка, драма
Год выпуска: 2016
Премьера: 13 марта 2019 г.
Продолжительность: 00:19:57
Сценарист: Анна Кузьминых
Режиссёр: Анна Кузьминых
В ролях: Петр Мамонов, Анастасия Куимова, Александр Кухаренко, Дария Иванова, Маргарита Тамурко, Валерия Антонова, Александр Карачинский
Описание: Лена бежит из города, бежит от своих проблем в надежде "прийти в себя". На случайной станции она знакомится с дедом Николаем
Качество видео: WEBRip
Формат видео: AVС
Видео: MPEG-4, 1920х1080 (16:9), 23,976 кадра/сек, 1202 Кбит/сек
Аудио: русский, ААС, 44,1 КГц, 128 Кбит/сек, 2 канала

MediaInfo

Общее
Полное имя : H:\- - - ТОРРЕНТЫ\Чай (Анна Кузьминых. 2017. П.Мамонов)\Чай.mp4
Формат : MPEG-4
Профиль формата : Base Media
Идентификатор кодека : isom
Размер файла : 191 Мбайт
Продолжительность : 19 м.
Общий поток : 1336 Кбит/сек
Программа кодирования : Lavf55.19.102
Видео
Идентификатор : 1
Формат : AVC
Формат/Информация : Advanced Video Codec
Профиль формата : High@L4.0
Параметр CABAC формата : Да
Параметр ReFrames формата : 3 кадра
Идентификатор кодека : avc1
Идентификатор кодека/Информация : Advanced Video Coding
Продолжительность : 19 м.
Битрейт : 1202 Кбит/сек
Ширина : 1920 пикселей
Высота : 1080 пикселей
Соотношение сторон : 16:9
Режим частоты кадров : Постоянный
Частота кадров : 23,976 кадра/сек
Цветовое пространство : YUV
Субдискретизация насыщенности : 4:2:0
Битовая глубина : 8 бит
Тип развёртки : Прогрессивная
Бит/(Пиксели*Кадры) : 0.024
Размер потока : 172 Мбайт (90%)
Библиотека кодирования : x264 core 155 r2901 7d0ff22
Основные цвета : BT.709
Характеристики трансфера : BT.709
Коэффициенты матрицы : BT.709
Аудио
Идентификатор : 2
Формат : AAC
Формат/Информация : Advanced Audio Codec
Профиль формата : LC
Идентификатор кодека : 40
Продолжительность : 19 м.
Вид битрейта : Постоянный
Битрейт : 128 Кбит/сек
Каналы : 2 канала
Расположение каналов : Front: L R
Частота : 44,1 КГц
Метод сжатия : С потерями
Размер потока : 18,3 Мбайт (10%)

Скриншот c названием фильма

Скриншоты

[cybertorrent.ru].t1588.torrent 
Торрент: Зарегистрирован [ 2019-03-30 15:36 ] · 517B8C3693B977512B9C44BA864DCAAECE9C0B30

Скачать .torrent

Скачать

15 KB

Статус: проверено
Скачан: 0 раз
Размер: 191 MB
terms.php
[Профиль] [ЛС]
Показать сообщения:    
Ответить на тему

Текущее время: 19-Авг 05:24

Часовой пояс: UTC ± 0



Вы не можете начинать темы
Вы не можете отвечать на сообщения
Вы не можете редактировать свои сообщения
Вы не можете удалять свои сообщения
Вы не можете голосовать в опросах
Вы не можете прикреплять файлы к сообщениям
Вы можете скачивать файлы