Сказки с темной стороны / Tales From The Darkside: The Movie (Джон Харрисон / John Harrison) [1990, США, ужасы, фантастика, триллер, VHSRip] [FullScreen] AVO (Юрий Сербин)

Ответить на тему
Статистика раздачи
Размер:  3,93 GB   |    Зарегистрирован:  4 месяца 18 дней   |    Скачан:  0 раз

Полного источника не было: Никогда

   
 
Автор Сообщение

serzh ®

Пол: Не указан

Стаж: 5 месяцев 6 дней

Сообщений: 344

Создавать темы 30-Мар-2019 15:35

[Цитировать]

Сказки с темной стороны / Tales From The Darkside: The Movie
[FullScreen]
«From the depths of four twisted minds»
Страна: США
Жанр: ужасы, фантастика, триллер
Год выпуска: 1990
Продолжительность: 01:29:16
Перевод: Авторский (одноголосый закадровый) Юрий Сербин / Видеосервис
Субтитры: нет
Режиссер: Джон Харрисон / John Harrison
В ролях: Дебора Харри, Дэвид Форрестер, Мэттью Лоуренс, Кристиан Слэйтер, Роберт Седжвик, Стив Бушеми, Дональд Ван Хорн, Майкл Дик, Джулианна Мур
Описание: Так случилось, у юноши-подростка Тимми отец незаслуженно угодил за решетку. Ему предъявлено обвинение в том, что он вовремя не отдал долг. К несчастью, долговая расписка была утеряна. Тимми хочет отыскать этот документ, чтобы доказать, что деньги были вовремя отданы, и освободить родителя из долговой тюрьмы. Путешествие паренька закончилось неудачно, он угодил в лапы ведьмы-людоедки Бетти. Все могло закончиться совсем печально, но у этой колдуньи было одно странное увлечение, она любила слушать ужасные истории. Тимми ничего не остается, как рассказывать ведьме страшные повествования. Как рассказано в кинокартине «Стивен Кинг: Сказки с темной стороны», таких историй было три. В один из колледжей привезли древнюю мумию. Она вдруг ожила и начала жестко убивать студентов. Хозяин фармацевтической компании Дроган нанимает наемного убийцу Холстона убить черного кота, который живет у него в доме. Выяснилось, что сделать это очень сложно, животное само превращается в охотника на людей. Один мужчина увидел живую гаргулью, которая убила человека. Он так перепугался, что никому об этом не рассказал. Сможет ли Тимми выжить после этих историй - неизвестно...
Доп. информация: Оцифровка лицензионной VHS (личный архив) и получение VHSRip alenavova
Эксклюзив для rutracker.org. При размещении данного релиза на других сайтах ссылка на автора alenavova обязательна.
Релиз
Сэмпл: https://yadi.sk/d/T4cLMT65NC10tw
Качество видео: VHSRip
Формат видео: MPG
Видео: MPEG2 Video 720x576 (4:3) 25fps bit rate 6 296 kb/s
Аудио: MPEG Audio 48000Hz stereo 192kbps

MediaInfo

Истории с темной стороны. Фильм - Tales From The Darkside The Movie [by alenavova] (Сербин, Видеосервис).mpg
Format : MPEG-PS
File size : 3.93 GiB
Duration : 1 h 29 min
Overall bit rate mode : Variable
Overall bit rate : 6 296 kb/s
Writing library : (dvd5: Oct 27 2015)
Video
ID : 224 (0xE0)
Format : MPEG Video
Format version : Version 2
Format profile : Main@Main
Format settings : CustomMatrix / BVOP
Format settings, BVOP : Yes
Format settings, Matrix : Custom
Format settings, GOP : M=3, N=15
Duration : 1 h 29 min
Bit rate mode : Variable
Bit rate : 6 000 kb/s
Width : 720 pixels
Height : 576 pixels
Display aspect ratio : 4:3
Frame rate : 25.000 FPS
Standard : PAL
Color space : YUV
Chroma subsampling : 4:2:0
Bit depth : 8 bits
Scan type : Progressive
Compression mode : Lossy
Bits/(Pixel*Frame) : 0.579
Time code of first frame : 00:00:00:00
Time code source : Group of pictures header
GOP, Open/Closed : Open
GOP, Open/Closed of first fram : Closed
Stream size : 3.73 GiB (95%)
Writing library : (dvd5: Oct 27 2015)
Audio
ID : 192 (0xC0)
Format : MPEG Audio
Format version : Version 1
Format profile : Layer 2
Duration : 1 h 29 min
Bit rate mode : Constant
Bit rate : 192 kb/s
Channel(s) : 2 channels
Sampling rate : 48.0 kHz
Compression mode : Lossy
Stream size : 123 MiB (3%)
Menu

Скриншоты


[cybertorrent.ru].t1596.torrent 
Торрент: Зарегистрирован [ 2019-03-30 15:36 ] · EFA7DDB3E9351264BFFDD1CEDEFD7F5205EA52AE

Скачать .torrent

Скачать

20 KB

Статус: проверено
Скачан: 0 раз
Размер: 3,93 GB
terms.php
[Профиль] [ЛС]
Показать сообщения:    
Ответить на тему

Текущее время: 18-Авг 15:12

Часовой пояс: UTC ± 0



Вы не можете начинать темы
Вы не можете отвечать на сообщения
Вы не можете редактировать свои сообщения
Вы не можете удалять свои сообщения
Вы не можете голосовать в опросах
Вы не можете прикреплять файлы к сообщениям
Вы можете скачивать файлы