Дикая местность / Неукрощённые / La región salvaje / The Untamed (Амат Эскаланте / Amat Escalante) [2016, Мексика, Дания, Франция, Германия, Норвегия, Швейцария, Ужасы, фантастика, триллер, драма, HDRip] MVO (GreenРай Studio) + MVO (Колобок)

Ответить на тему
Статистика раздачи
Размер:  1,44 GB   |    Зарегистрирован:  4 месяца 19 дней   |    Скачан:  0 раз

Полного источника не было: Никогда

   
 
Автор Сообщение

солнышко ®

Пол: Не указан

Стаж: 5 месяцев 6 дней

Сообщений: 529

Создавать темы 30-Мар-2019 15:35

[Цитировать]

Дикая местность (Неукрощённые) / La región salvaje (The Untamed)
Страна: Мексика, Дания, Франция, Германия, Норвегия, Швейцария
Жанр: Ужасы, фантастика, триллер, драма
Год выпуска: 2016
Продолжительность: 01:38:17
Перевод #1: Любительский (многоголосый закадровый) GreenРай Studio
Перевод #2: Любительский (многоголосый закадровый) Колобок
Субтитры: нет
Оригинальная аудиодорожка: нет
Режиссер: Амат Эскаланте / Amat Escalante
В ролях: Кенни Джонстон, Симона Бусио, Фернандо Корона, Иисус Меза, Рут Рамос, Иден Вильявиченсио, Оскар Эскаланте, Бернарда Труэба...
Описание: Неподалёку от города в одиноко стоящем доме пожилая пара держит инопланетное существо. К нему иногда приходят посетители, и инопланетянин меняет их жизнь навсегда. Вероника хочет чаще видеться с инопланетным другом, но тот считает иначе. Девушка знакомится с молодой супружеской парой с двумя маленькими детьми и с проблемами в отношениях, и это знакомство перевернёт их мир с ног на голову.
Доп. информация: за работу со звуком спасибо Нордер
[box]СЭМПЛ[/box]
Качество видео: HDRip (источник: The Untamed (2016) 720p BluRay DD5.1x264-MandR.mkv 4,56 ГБ)
Формат видео: AVI
Видео: 720x432 (5:3), 23.976fps, XviD, 1693kbps avg, 0,227 bit/pixel
Аудио #1: 48KHz, AC3, 2 ch, 192kbps avg [GreenРай Studio]
Аудио #2: 48KHz, AC3, 2 ch, 192kbps avg [Колобок]
Субтитры: нет

MediaInfo

General
Complete name : D:\The Untamed (2016) HDRip by Waldo.avi
Format : AVI
Format/Info : Audio Video Interleave
File size : 1.44 GiB
Duration : 1 h 38 min
Overall bit rate : 2 092 kb/s
Writing application : VirtualDubMod 1.5.10.3 | www.virtualdub-fr.org || (build 2550/release)
Writing library : VirtualDubMod build 2550/release
Video
ID : 0
Format : MPEG-4 Visual
Format profile : Advanced Simple@L5
Format settings, BVOP : 1
Format settings, QPel : No
Format settings, GMC : No warppoints
Format settings, Matrix : Custom
Codec ID : XVID
Codec ID/Hint : XviD
Duration : 1 h 38 min
Bit rate : 1 693 kb/s
Width : 720 pixels
Height : 432 pixels
Display aspect ratio : 5:3
Frame rate : 23.976 (24000/1001) FPS
Color space : YUV
Chroma subsampling : 4:2:0
Bit depth : 8 bits
Scan type : Progressive
Compression mode : Lossy
Bits/(Pixel*Frame) : 0.227
Stream size : 1.16 GiB (81%)
Writing library : XviD 73
Audio #1
ID : 1
Format : AC-3
Format/Info : Audio Coding 3
Format settings, Endianness : Big
Codec ID : 2000
Duration : 1 h 38 min
Bit rate mode : Constant
Bit rate : 192 kb/s
Channel(s) : 2 channels
Channel positions : Front: L R
Sampling rate : 48.0 kHz
Frame rate : 31.250 FPS (1536 SPF)
Bit depth : 16 bits
Compression mode : Lossy
Stream size : 135 MiB (9%)
Alignment : Split accross interleaves
Interleave, duration : 42 ms (1.00 video frame)
Interleave, preload duratio : 500 ms
Service kind : Complete Main
Audio #2
ID : 2
Format : AC-3
Format/Info : Audio Coding 3
Format settings, Endianness : Big
Codec ID : 2000
Duration : 1 h 38 min
Bit rate mode : Constant
Bit rate : 192 kb/s
Channel(s) : 2 channels
Channel positions : Front: L R
Sampling rate : 48.0 kHz
Frame rate : 31.250 FPS (1536 SPF)
Bit depth : 16 bits
Compression mode : Lossy
Stream size : 135 MiB (9%)
Alignment : Split accross interleaves
Interleave, duration : 42 ms (1.00 video frame)
Interleave, preload duratio : 500 ms
Service kind : Complete Main

Скриншот c названием фильма

Скриншоты

bagatur80 писал(а):76990106Внимание: просмотр фильма может потребовать высокого уровня толерантности!
[cybertorrent.ru].t1617.torrent 
Торрент: Зарегистрирован [ 2019-03-30 15:36 ] · 2FCC6CB62C570D43C750AACF4203E07B5A48AD3C

Скачать .torrent

Скачать

15 KB

Статус: проверено
Скачан: 0 раз
Размер: 1,44 GB
terms.php
[Профиль] [ЛС]
Показать сообщения:    
Ответить на тему

Текущее время: 19-Авг 05:24

Часовой пояс: UTC ± 0



Вы не можете начинать темы
Вы не можете отвечать на сообщения
Вы не можете редактировать свои сообщения
Вы не можете удалять свои сообщения
Вы не можете голосовать в опросах
Вы не можете прикреплять файлы к сообщениям
Вы можете скачивать файлы