Частная война / A Private War (Мэтт Хейнеман / Matthew Heineman) [2018, Великобритания, США, драма, военный, биография, BDRip] MVO (iTunes) + Sub (Eng) + Original Eng

Ответить на тему
Статистика раздачи
Размер:  2,18 GB   |    Зарегистрирован:  5 месяцев 15 дней   |    Скачан:  0 раз

Полного источника не было: Никогда

   
 
Автор Сообщение

солнышко ®

Пол: Не указан

Стаж: 6 месяцев 2 дня

Сообщений: 565

Создавать темы 30-Мар-2019 15:35

[Цитировать]

Частная война / A Private War
Страна: Великобритания, США
Жанр: драма, военный, биография
Год выпуска: 2018
Продолжительность: 01:50:35-Перевод: Профессиональный (многоголосый закадровый) | iTunes
Субтитры: английские
Оригинальная аудиодорожка: английский-Режиссер: Мэтт Хейнеман / Matthew Heineman-В ролях: Розамунд Пайк, Джейми Дорнан, Стэнли Туччи, Том Холландер, Фэй Марсей, Никки Амука-Бёрд, Грег Уайз, Александра Моэн, Кори Джонсон, Аманда Дрю-Описание: Бесстрашная Мэри Колвин - один из самых знаменитых военных корреспондентов современности. Она одинаково комфортно чувствует себя, потягивая Martini с элитой Лондона, и в противостоянии диктаторам в разгар боевого конфликта. Она бесконечно много курит, пристрастна к алкоголю и не всегда разборчива в связях. Но настойчивое желание засвидетельствовать правду заставляет ее снова и снова оказываться на передовых военных конфликтов по всему миру. Она не раз смотрела смерти прямо в глаза. Её жизнь - торнадо, её разум - минное поле, её прекрасное тело изранено. Вместе с таким же борцом за справедливость, военным фотографом Полом Конроем, в осажденном городе Сирии они приступают к самому опасному заданию в их карьере.- -Качество видео: BDRip | A.Private.War.2018.BDREMUX.1080p.seleZen
Формат видео: AVI
Видео: 720x304 (2.37:1), 23.976 fps, XviD build 73 ~2042 kbps avg, 0.39 bit/pixel
Аудио 1: 48 kHz, AC3 Dolby Digital, 3/2 (L,C,R,l,r) + LFE ch, ~384 kbps | RUS
Аудио 2: 48 kHz, AC3 Dolby Digital, 3/2 (L,C,R,l,r) + LFE ch, ~384 kbps | ENG-[box]Сэмпл[/box]-

MediaInfo

Код:Формат : AVI
Формат/Информация : Audio Video Interleave
Профиль формата : OpenDML
Размер файла : 2,18 Гбайт
Продолжительность : 1 ч. 50 м.
Общий поток : 2818 Кбит/сек
Программа кодирования : VirtualDubMod 1.5.10.3 | www.virtualdub-fr.org || (build 2550/release)
Библиотека кодирования : VirtualDubMod build 2550/release
Видео
Идентификатор : 0
Формат : MPEG-4 Visual
Профиль формата : Advanced Simple@L5
Настройки формата : BVOP1 / Custom Matrix
Параметр BVOP формата : 1
Параметр QPel формата : Нет
Параметр GMC формата : Без точки перехода
Параметр матрицы формата : Выборочная
Идентификатор кодека : XVID
Идентификатор кодека/Подсказка : XviD
Продолжительность : 1 ч. 50 м.
Битрейт : 2032 Кбит/сек
Ширина : 720 пикселей
Высота : 304 пикселя
Соотношение сторон : 2,35:1
Частота кадров : 23,976 (24000/1001) кадра/сек
Цветовое пространство : YUV
Субдискретизация насыщенности : 4:2:0
Битовая глубина : 8 бит
Тип развёртки : Прогрессивная
Метод сжатия : С потерями
Бит/(Пиксели*Кадры) : 0.387
Размер потока : 1,57 Гбайт (72%)
Библиотека кодирования : XviD 73
Аудио #1
Идентификатор : 1
Формат : AC-3
Формат/Информация : Audio Coding 3
Коммерческое название : Dolby Digital
Идентификатор кодека : 2000
Продолжительность : 1 ч. 50 м.
Вид битрейта : Постоянный
Битрейт : 384 Кбит/сек
Каналы : 6 каналов
Channel layout : L R C LFE Ls Rs
Частота : 48,0 КГц
Частота кадров : 31,250 кадров/сек (1536 SPF)
Битовая глубина : 16 бит
Метод сжатия : С потерями
Размер потока : 304 Мбайт (14%)
Выравнивание : Разделение по промежуткам
Продолжительность промежутка : 42 мс. (1,00 видеокадр)
Время предзагрузки промежутка : 500 мс.
Заголовок : Russian
ServiceKind/String : Complete Main
Аудио #2
Идентификатор : 2
Формат : AC-3
Формат/Информация : Audio Coding 3
Коммерческое название : Dolby Digital
Идентификатор кодека : 2000
Продолжительность : 1 ч. 50 м.
Вид битрейта : Постоянный
Битрейт : 384 Кбит/сек
Каналы : 6 каналов
Channel layout : L R C LFE Ls Rs
Частота : 48,0 КГц
Частота кадров : 31,250 кадров/сек (1536 SPF)
Битовая глубина : 16 бит
Метод сжатия : С потерями
Размер потока : 304 Мбайт (14%)
Выравнивание : Разделение по промежуткам
Продолжительность промежутка : 42 мс. (1,00 видеокадр)
Время предзагрузки промежутка : 500 мс.
Заголовок : English
ServiceKind/String : Complete Main

Скриншоты


[cybertorrent.ru].t1618.torrent 
Торрент: Зарегистрирован [ 2019-03-30 15:36 ] · 725F66F136B9D2553088D3CA581AF96A4D7AC8B0

Скачать .torrent

Скачать

12 KB

Статус: проверено
Скачан: 0 раз
Размер: 2,18 GB
terms.php
[Профиль] [ЛС]
Показать сообщения:    
Ответить на тему

Текущее время: 15-Сен 10:15

Часовой пояс: UTC ± 0



Вы не можете начинать темы
Вы не можете отвечать на сообщения
Вы не можете редактировать свои сообщения
Вы не можете удалять свои сообщения
Вы не можете голосовать в опросах
Вы не можете прикреплять файлы к сообщениям
Вы можете скачивать файлы

Партнеры

Выражаем благодарность всем людям, внесшим вклад в наш сайт в далёком прошлом. Мы помним Вас, гордимся Вами и ждём Вас обратно!

Интересное в сети