Навстречу тьме / Into the Dark / Сезон: 1 / Серии: 1-6 из 12 (Пол Дэвис, Патрик Люссье, Софи Такал) [2018, США, Ужасы, триллер, WEB-DLRip] MVO (TVShows)

Ответить на тему
Статистика раздачи
Размер:  7,89 GB   |    Зарегистрирован:  4 месяца 2 дня   |    Скачан:  0 раз

Полного источника не было: Никогда

   
 
Автор Сообщение

Рамфоринх ®

Пол: Не указан

Стаж: 4 месяца 8 дней

Сообщений: 319

Создавать темы 18-Мар-2019 10:01

[Цитировать]

Навстречу тьме | Into the Dark- Год выпуска: 2018
Страна: США
Жанр: ужасы, триллер
Продолжительность: ~ 01:22:00
Перевод: Любительский (многоголосый закадровый) TVShows--Режиссёр: Пол Дэвис, Патрик Люссье, Софи Такал
В ролях: Том Бейтман, Няша Хатенди, Дермот Малруни, Ребекка Риттенхаус, Латерша Роуз, Джон Дэйли, Темби Лок, Аврора Перрино, Дейл Дикки, Дэвид Халл и др.-Описание: Изощренный киллер-трудяга с циничным взглядом на современное общество думал, что его задача резко усложнится, когда ему пришлось перевозить тело в ночь на Хэллоуин, но все вокруг только в восторге от его «костюма киллера».--
Качество: WEB-DLRip
Формат: AVI
Видео: XVID, 704x352, 23.976 fps, ~2000 kbps avg, ~0.337 bit/pixel
Аудио Rus: AC3, 48.0 KHz, 2 channels, 192 kbps
Субтитры: отсутствуют
Реклама отсутствует
Все раздачи сериала

MediaInfo

General
Complete name : G:\Навстречу тьме (Сезон 1) TVShows\Into.the.Dark.S01E01.WEB-DLRip.RGzsRutracker.Celta88.avi
Format : AVI
Format/Info : Audio Video Interleave
File size : 1.27 GiB
Duration : 1 h 22 min
Overall bit rate : 2 201 kb/s
Writing application : VirtualDubMod 1.5.10.3 | www.virtualdub-fr.org || (build 2550/release)
Writing library : VirtualDubMod build 2550/release
Video
ID : 0
Format : MPEG-4 Visual
Format profile : Advanced Simple@L5
Format settings, BVOP : 1
Format settings, QPel : No
Format settings, GMC : No warppoints
Format settings, Matrix : Custom
Codec ID : XVID
Codec ID/Hint : XviD
Duration : 1 h 22 min
Bit rate : 1 999 kb/s
Width : 704 pixels
Height : 352 pixels
Display aspect ratio : 2.000
Frame rate : 23.976 (24000/1001) FPS
Color space : YUV
Chroma subsampling : 4:2:0
Bit depth : 8 bits
Scan type : Progressive
Compression mode : Lossy
Bits/(Pixel*Frame) : 0.336
Stream size : 1.15 GiB (91%)
Writing library : XviD 73
Audio
ID : 1
Format : AC-3
Format/Info : Audio Coding 3
Mode extension : CM (complete main)
Format settings, Endianness : Big
Codec ID : 2000
Duration : 1 h 22 min
Bit rate mode : Constant
Bit rate : 192 kb/s
Channel(s) : 2 channels
Channel positions : Front: L R
Sampling rate : 48.0 kHz
Frame rate : 31.250 FPS (1536 spf)
Bit depth : 16 bits
Compression mode : Lossy
Stream size : 113 MiB (9%)
Alignment : Split accross interleaves
Interleave, duration : 42 ms (1.00 video frame)
Interleave, preload duratio : 500 ms

Скриншоты

Внимание! Раздача ведётся путём добавления новых серий!

Внимание! Раздача ведётся путём добавления новых серий; при каждом добавлении создаётся новый торрент.
Чтобы начать докачку новой серии, пользователям необходимо сделать следующее:
1. Остановить скачивание.
2. Удалить старый торрент у себя из клиента (старые серии удалять не надо).
3. Скачать новый торрент и запустить его у себя в клиенте вместо старого, при этом указать клиенту путь в старую папку куда и должно происходить скачивание новых серий.
Ваш клиент при этом должен произвести хеширование (проверку) старой папки (если не производит сам - помогите ему сделать это), и будет докачивать только те серии которых у вас ещё нет. Старые серии при этом не удаляются, а продолжают раздаваться!
Eсли вы уже удалили старые серии, то предотвратить повторную закачку старых серий можно, отжав галочку в соответствующих местах при запуске нового торрента.
[cybertorrent.ru].t162.torrent 
Торрент: Зарегистрирован [ 2019-03-18 10:04 ] · 0CE8DBB5C6CA52B7685E7EE03F7BD6174EEFC0A6

Скачать .torrent

Скачать

40 KB

Статус: проверено
Скачан: 0 раз
Размер: 7,89 GB
terms.php
[Профиль] [ЛС]
Показать сообщения:    
Ответить на тему

Текущее время: 21-Июл 02:07

Часовой пояс: UTC ± 0



Вы не можете начинать темы
Вы не можете отвечать на сообщения
Вы не можете редактировать свои сообщения
Вы не можете удалять свои сообщения
Вы не можете голосовать в опросах
Вы не можете прикреплять файлы к сообщениям
Вы можете скачивать файлы