Курица, которая несла всякую всячину / Курка, яка несла всяку всячину (Марина Медведь / Марина Медвiдь) [2006, Украина, мультфильм, DVDRip] original + rus sub

Ответить на тему
Статистика раздачи
Размер:  237 MB   |    Зарегистрирован:  3 месяца 7 дней   |    Скачан:  0 раз

Полного источника не было: Никогда

   
 
Автор Сообщение

xelon ®

Пол: Не указан

Стаж: 3 месяца 13 дней

Сообщений: 78

Создавать темы 18-Мар-2019 10:01

[Цитировать]

Курица, которая несла всякую всячину / Курка, яка несла всяку всячину
Страна: Украина
Жанр: мультфильм
Продолжительность: 00:10:13
Год выпуска: 2006
Перевод: субтитры (alex.n42)
Русские субтитры: есть
Режиссёр: Марина Медведь / Марина Медвiдь
Описание: По сказке Марины и Сергея Дяченко.
Про курицу, которая очень хотела своих цыплят, но вместо яиц несла разные предметы. А однажды всё-таки снесла шестерых цыплят и один... маленький экскаватор.
Качество: DVDRip
Формат: AVI
Видео: 3015 kbps, 720х544 (4:3), 25.000 fps, MPEG-4 Visual (XviD)
Аудио: ukr, 224 kbps, 48.0 kHz, 2 channels, MPEG Audio (MP3)
Субтитры: softsub (SRT)

Подробные технические данные

General
Complete name : Курка, яка несла всяку всячину (2006).avi
Format : AVI
Format/Info : Audio Video Interleave
File size : 237 MiB
Duration : 10mn 13s
Overall bit rate : 3 246 Kbps
Writing application : VirtualDubMod 1.5.4.1 (build 2178/release)
Writing library : VirtualDubMod build 2178/release
Video
ID : 0
Format : MPEG-4 Visual
Format profile : Advanced Simple@L5
Format settings, BVOP : No
Format settings, QPel : No
Format settings, GMC : No warppoints
Format settings, Matrix : Custom
Codec ID : XVID
Codec ID/Hint : XviD
Duration : 10mn 13s
Bit rate : 3 015 Kbps
Width : 720 pixels
Height : 544 pixels
Display aspect ratio : 4:3
Frame rate : 25.000 fps
Color space : YUV
Chroma subsampling : 4:2:0
Bit depth : 8 bits
Scan type : Progressive
Compression mode : Lossy
Bits/(Pixel*Frame) : 0.308
Stream size : 220 MiB (93%)
Writing library : XviD 1.2.1 (UTC 2008-12-04)
Audio
ID : 1
Format : MPEG Audio
Format version : Version 1
Format profile : Layer 2
Codec ID : 50
Duration : 10mn 13s
Bit rate mode : Constant
Bit rate : 224 Kbps
Channel(s) : 2 channels
Sampling rate : 48.0 KHz
Compression mode : Lossy
Stream size : 16.4 MiB (7%)
Alignment : Aligned on interleaves
Interleave, duration : 80 ms (2.00 video frames)
Interleave, preload duration : 504 ms
Language : English

Скриншоты

[cybertorrent.ru].t163.torrent 
Торрент: Зарегистрирован [ 2019-03-18 10:04 ] · 06BA2E2E584D9A73715BE9000EF3A211A19A827D

Скачать .torrent

Скачать

19 KB

Статус: проверено
Скачан: 0 раз
Размер: 237 MB
terms.php
[Профиль] [ЛС]
Показать сообщения:    
Ответить на тему

Текущее время: 25-Июн 21:35

Часовой пояс: UTC ± 0



Вы не можете начинать темы
Вы не можете отвечать на сообщения
Вы не можете редактировать свои сообщения
Вы не можете удалять свои сообщения
Вы не можете голосовать в опросах
Вы не можете прикреплять файлы к сообщениям
Вы можете скачивать файлы