Кошмар на улице Вязов 5: Дитя сна / Кошмар на улице Вязов 5: Дитя сновидений / A Nightmare on Elm Street: The Dream Child (Стивен Хопкинс / Stephen Hopkins) [1989, США, Ужасы, DVDRip] [FullScreen] VO (Сергей Белов (Зереницын)) + Original Eng

Ответить на тему
Статистика раздачи
Размер:  1,42 GB   |    Зарегистрирован:  5 месяцев 17 дней   |    Скачан:  0 раз

Полного источника не было: Никогда

   
 
Автор Сообщение

serzh ®

Пол: Не указан

Стаж: 6 месяцев 5 дней

Сообщений: 383

Создавать темы 31-Мар-2019 15:52

[Цитировать]

Кошмар на улице Вязов 5: Дитя сна / Кошмар на улице Вязов 5: Дитя сновидений / A Nightmare on Elm Street: The Dream Child
[FullScreen]
«Roll Over Beethoven - It's Freddy's Fifth!»
Страна: США
Жанр: Ужасы
Год выпуска: 1989
Продолжительность: 01:29:37
Перевод: Одноголосый закадровый Сергей Белов (Зереницын)
Субтитры: нет
Оригинальная аудиодорожка: английский
Режиссер: Стивен Хопкинс / Stephen Hopkins
В ролях: Роберт Инглунд, Лиза Уилкокс, Келли Джо Минтер, Дэнни Хэссел, Эрика Андерсон,
Николас Меле, Джо Сили, Вэлори Армстронг, Барр ДеБеннинг, Кларенс Фелдер
Описание: Неистребимый детоубийца, который в пятой части даже объявляет себя Супер-Фредди,
исхитряется возродиться в ребенке, находящемся в утробе матери. Единственный шанс спасти
ребенка — найти незахороненный труп монашки Аманды Крюгер, породившей на свет такое
чудовище как Фредди, чтобы его уничтожить.
Фантастическая и феерическая картина с невероятными превращениями при помощи сложного
грима с визуальными и компьютерными эффектами вновь имела огромный успех у зрителей.
Доп. информация: Дорожка с С. Беловым синхронизирована и наложена ale_x2008 при помощи Adobe Audition, Sony Vegas и VirtualDubMod.
За оцифрованную с VHS дорожку благодарим - vr666 и m.mamichev

Релиз
Сэмпл: https://yadi.sk/i/kRQ5ayDah9Jykw
Качество видео: DVDRip
Формат видео: AVI
Видео: XviD build 73, 640x480 (1.33:1), 23.976 fps, 1862 kbps avg, 0.25 bit/pixel
Аудио: AC3 Dolby Digital, 48000Hz, 2/0 (L,R) ch (mono), 192 kbps avg
Аудио 2: AC3 Dolby Digital, 48000Hz, 2/0 (L,R) ch, 192 kbps avg

MediaInfo

Кошмар на улице Вязов 5 Дитя сна - A Nightmare on Elm Street The Dream Child (by ale_x2008).avi
Format : AVI
Format/Info : Audio Video Interleave
File size : 1.42 GiB
Duration : 1 h 29 min
Overall bit rate : 2 261 kb/s
Movie name : Кошмар на улице Вязов 5 Дитя сна - A Nightmare on Elm Street The Dream Child (by ale_x2008)
Director : by ale_x2008
Writing application : VirtualDubMod 1.5.10.2 (build 2540/release)
Copyright : Edich2
Comment : RuTracker.org
Video
ID : 0
Format : MPEG-4 Visual
Format profile : Advanced Simple@L5
Format settings : BVOP1 / Custom Matrix
Format settings, BVOP : 1
Format settings, QPel : No
Format settings, GMC : No warppoints
Format settings, Matrix : Custom
Codec ID : XVID
Codec ID/Hint : XviD
Duration : 1 h 29 min
Bit rate : 1 863 kb/s
Width : 640 pixels
Height : 480 pixels
Display aspect ratio : 4:3
Frame rate : 23.976 (24000/1001) FPS
Color space : YUV
Chroma subsampling : 4:2:0
Bit depth : 8 bits
Scan type : Progressive
Compression mode : Lossy
Bits/(Pixel*Frame) : 0.253
Stream size : 1.17 GiB (82%)
Writing library : XviD 73
Audio #1
ID : 1
Format : AC-3
Format/Info : Audio Coding 3
Codec ID : 2000
Duration : 1 h 29 min
Bit rate mode : Constant
Bit rate : 192 kb/s
Channel(s) : 2 channels
Channel positions : Front: L R
Sampling rate : 48.0 kHz
Frame rate : 31.250 FPS (1536 SPF)
Bit depth : 16 bits
Compression mode : Lossy
Stream size : 123 MiB (8%)
Alignment : Split accross interleaves
Interleave, duration : 42 ms (1.00 video frame)
Interleave, preload duratio : 500 ms
Service kind : Complete Main
Audio #2
ID : 2
Format : AC-3
Format/Info : Audio Coding 3
Codec ID : 2000
Duration : 1 h 29 min
Bit rate mode : Constant
Bit rate : 192 kb/s
Channel(s) : 2 channels
Channel positions : Front: L R
Sampling rate : 48.0 kHz
Frame rate : 31.250 FPS (1536 SPF)
Bit depth : 16 bits
Compression mode : Lossy
Stream size : 123 MiB (8%)
Alignment : Split accross interleaves
Interleave, duration : 42 ms (1.00 video frame)
Interleave, preload duratio : 500 ms
Service kind : Complete Main

Скриншоты


[cybertorrent.ru].t1642.torrent 
Торрент: Зарегистрирован [ 2019-03-31 15:52 ] · 8BB5F189C9D62E49D219224BC42ECA44749F1AB6

Скачать .torrent

Скачать

15 KB

Статус: проверено
Скачан: 0 раз
Размер: 1,42 GB
terms.php
[Профиль] [ЛС]
Показать сообщения:    
Ответить на тему

Текущее время: 18-Сен 09:51

Часовой пояс: UTC ± 0



Вы не можете начинать темы
Вы не можете отвечать на сообщения
Вы не можете редактировать свои сообщения
Вы не можете удалять свои сообщения
Вы не можете голосовать в опросах
Вы не можете прикреплять файлы к сообщениям
Вы можете скачивать файлы

Партнеры

Выражаем благодарность всем людям, внесшим вклад в наш сайт в далёком прошлом. Мы помним Вас, гордимся Вами и ждём Вас обратно!

Интересное в сети