Двойник / Обратная сторона / По ту сторону / Counterpart / Сезон: 2 / Серии: 1-10 из 10 (Алик Сахаров, Мортен Тильдум) [2018, США, Фантастика, триллер, драма, WEBRip] DVO (Gears Media) + Original

Ответить на тему
Статистика раздачи
Размер:  6,12 GB   |    Зарегистрирован:  5 месяцев 30 дней   |    Скачан:  0 раз

Полного источника не было: Никогда

   
 
Автор Сообщение

Рамфоринх ®

Пол: Не указан

Стаж: 6 месяцев 5 дней

Сообщений: 366

Создавать темы 18-Мар-2019 10:01

[Цитировать]

Двойник / Обратная сторона / По ту сторону / Counterpart
Год выпуска: 2018
Страна: США
Жанр: Фантастика, триллер, драма
Продолжительность: 00:55:00
Перевод: Профессиональный (двухголосый закадровый) [Gears Media]
Режиссёр: Алик Сахаров, Мортен Тильдум
В ролях: Дж. К. Симмонс — Говард Силк, Оливия Уильямс — Эмили Бёртон Силк, жена Говарда, Гарри Ллойд — Питер Куайл, директор в агентстве Говарда, Сара Серайокко — Болдуин, таинственный убийца, Ульрих Томсен — Олдрич, закалённый директор по операциям в агентстве Говарда, Мидо Хамада — Сайрус, офицер агентства «по ту сторону», который является правой рукой Олдрича, Назанин Бониади — Клэр, загадочная молодая женщина с любопытным прошлым, которая становится ключевой фигурой всех событий, Николас Пиннок — Иэн Шоу, воинственный оперативник и наблюдатель, Джейми Бамбер — Эрик, деверь Говарда
Описание: Второй сезон остросюжетной приключенческой драмы "По ту сторону" с элементами фантастики предлагает зрителям продолжить путешествие по Прайму. Это другой мир, который переплетен с нашей реальностью. О существовании Прайма совершенно случайно узнает Говард Силк, работающий в небольшом агентстве, которое, как окажется позже, занимается охраной таинственного коридора, объединяющего миры. В этом коридоре находятся охранники, таможня, специальные агенты, отлавливающие нелегалов, а также те, кто пересекает границу по специальной визе, выдающейся на несколько часов или дней. Так уж получилось, что между мирами происходит сообщение. Это, чаще всего, дела, касающиеся бизнеса, причем, не всегда законного. Прайм - это совершенно другой мир. Здесь все совершенно иначе: эта вселенная не похожа на привычную нам. Земля сохранила прежние очертания, но вот человечество пережило совершенно иные события в своей истории. Так уж вышло, что порядка семи процентов населения погибло из-за эпидемии гриппа, а тесный контакт с другими жителями, начиная от рукопожатия, строго запрещен. Еще одной особенностью параллельной реальности является то, что в ней проживают люди, которые являются аналогом человека из настоящего. Говард в нашем мире - мелкий клерк, а Говард из другого измерения - это оперативник, который приходит в наш мир, чтобы предотвратить убийство.
Ссылка на предыдущие и альтернативные раздачи: http://cybertorrent.ru/forum/tracker.php?nm=Counterpart
Сэмпл: http://multi-up.com/1217661
Качество: WEBRip
Формат: AVI
Видео: XviD, 720x400 at 23.976 fps, ~1400 kbps avg
Аудио1: Russian, MP3, 48 kHz, 2 ch, 128 kbps
Аудио2: English, MP3, 48 kHz, 2 ch, 128 kbps
Субтитры: нет
Реклама: аудио (два раза, в начале и конце, по 12 сек.)

MediaInfo

Format : AVI
Format/Info : Audio Video Interleave
File size : 726 MiB
Duration : 58 min 22 s
Overall bit rate : 1 738 kb/s
Writing application : Lavf57.71.100
Video
ID : 0
Format : MPEG-4 Visual
Format profile : Advanced Simple@L5
Format settings : BVOP1
Format settings, BVOP : 1
Format settings, QPel : No
Format settings, GMC : No warppoints
Format settings, Matrix : Default (H.263)
Codec ID : XVID
Codec ID/Hint : XviD
Duration : 58 min 21 s
Bit rate : 1 461 kb/s
Width : 720 pixels
Height : 400 pixels
Display aspect ratio : 16:9
Frame rate : 23.976 (24000/1001) FPS
Color space : YUV
Chroma subsampling : 4:2:0
Bit depth : 8 bits
Scan type : Progressive
Compression mode : Lossy
Bits/(Pixel*Frame) : 0.212
Stream size : 610 MiB (84%)
Writing library : XviD 67
Audio #1
ID : 1
Format : MPEG Audio
Format version : Version 1
Format profile : Layer 3
Format settings : Joint stereo / MS Stereo
Codec ID : 55
Codec ID/Hint : MP3
Duration : 58 min 22 s
Bit rate mode : Constant
Bit rate : 128 kb/s
Channel(s) : 2 channels
Sampling rate : 48.0 kHz
Compression mode : Lossy
Stream size : 53.4 MiB (7%)
Alignment : Aligned on interleaves
Interleave, duration : 24 ms (0.58 video frame)
Title : Gears Media
Writing library : LAME3.100
Audio #2
ID : 2
Format : MPEG Audio
Format version : Version 1
Format profile : Layer 3
Format settings : Joint stereo
Codec ID : 55
Codec ID/Hint : MP3
Duration : 58 min 22 s
Bit rate mode : Constant
Bit rate : 128 kb/s
Channel(s) : 2 channels
Sampling rate : 48.0 kHz
Compression mode : Lossy
Stream size : 53.4 MiB (7%)
Alignment : Aligned on interleaves
Interleave, duration : 24 ms (0.58 video frame)

Скриншоты

Внимание! Раздача ведётся путём добавления новых серий

Внимание! Раздача ведётся путём добавления новых серий; при каждом добавлении создаётся новый торрент. Чтобы начать докачку новой серии, пользователям необходимо сделать следующее:
(1) остановить скачивание,
(2) удалить старый торрент у себя из клиента (старые серии удалять не надо),
(3) скачать новый торрент и запустить его у себя в клиенте вместо старого, при этом указать клиенту путь в старую папку куда и должно происходить скачивание новых серий.
Ваш клиент при этом должен произвести хеширование (проверку) старой папки (если не производит сам - помогите ему сделать это), и будет докачивать только те серии которых у вас ещё нет. Старые серии при этом не удаляются, а продолжают раздаваться!
Eсли вы уже удалили старые серии, то предотвратить повторную закачку старых серий можно, отжав галочку в соответствующих местах при запуске нового торрента. По возможности, желательно не удалять старые серии как можно дольше чтобы релизёр не столько продолжал раздавать старые серии, а смог сконцентрироваться на новых.
[cybertorrent.ru].t165.torrent 
Торрент: Зарегистрирован [ 2019-03-18 10:04 ] · D4BA04145FBCCEC4E5B4E12CB25FE363F7A3CFA7

Скачать .torrent

Скачать

32 KB

Статус: проверено
Скачан: 0 раз
Размер: 6,12 GB
terms.php
[Профиль] [ЛС]
Показать сообщения:    
Ответить на тему

Текущее время: 17-Сен 20:02

Часовой пояс: UTC ± 0



Вы не можете начинать темы
Вы не можете отвечать на сообщения
Вы не можете редактировать свои сообщения
Вы не можете удалять свои сообщения
Вы не можете голосовать в опросах
Вы не можете прикреплять файлы к сообщениям
Вы можете скачивать файлы

Партнеры

Выражаем благодарность всем людям, внесшим вклад в наш сайт в далёком прошлом. Мы помним Вас, гордимся Вами и ждём Вас обратно!

Интересное в сети