Хочу жить в зоопарке (Евгения Голубева) [2017, Россия, мультфильм, WEBRip-AVC]

Ответить на тему
Статистика раздачи
Размер:  25 MB   |    Зарегистрирован:  4 месяца 17 дней   |    Скачан:  0 раз

Полного источника не было: Никогда

   
 
Автор Сообщение

xelon ®

Пол: Не указан

Стаж: 5 месяцев 6 дней

Сообщений: 94

Создавать темы 31-Мар-2019 15:52

[Цитировать]

Хочу жить в зоопарке
Страна: Россия
Жанр: мультфильм
Продолжительность: 00:05:59
Год выпуска: 2017
Режиссёр: Евгения Голубева
Композитор: Томас Энджел / Tom Angell
Описание: Девочка Злата не хочет убирать в своей комнате, есть кашу и учить уроки. Поэтому Злата решила отправиться жить в зоопарк, думая, что там она будет делать всё, что ей хочется...
Доп. информация:
Спецприз UNICEF за лучший фильм с социальным месседжем - Фестиваль "Cartoons on the Bay" (Италия)
Приз зрителей - Фестиваль "IndieJunior Allianz" (Португалия)
Лучший мультфильм для детей - Фестиваль "Вкратце" (Россия)
Качество: WEBRip-AVC
Формат: MP4
Видео: 459 kbps, 1280х720 (16:9), 25.000 fps, AVC (High@L3.1)
Аудио: 128 kbps, 44.1 kHz, 2 channels, AAC (LC)
Субтитры: отсутствуют

Подробные технические данные

General
Complete name : Хочу жить в зоопарке (2017).mp4
Format : MPEG-4
Format profile : Base Media / Version 2
Codec ID : mp42
File size : 25.4 MiB
Duration : 5mn 59s
Overall bit rate mode : Variable
Overall bit rate : 591 Kbps
Encoded date : UTC 2019-03-30 07:12:05
Tagged date : UTC 2019-03-30 07:12:05
gsst : 0
gstd : 360025
Video
ID : 1
Format : AVC
Format/Info : Advanced Video Codec
Format profile : Main@L3.1
Format settings, CABAC : Yes
Format settings, ReFrames : 3 frames
Codec ID : avc1
Codec ID/Info : Advanced Video Coding
Duration : 5mn 59s
Bit rate : 459 Kbps
Width : 1 280 pixels
Height : 720 pixels
Display aspect ratio : 16:9
Frame rate mode : Constant
Frame rate : 25.000 fps
Color space : YUV
Chroma subsampling : 4:2:0
Bit depth : 8 bits
Scan type : Progressive
Bits/(Pixel*Frame) : 0.020
Stream size : 19.7 MiB (78%)
Title : ISO Media file produced by Google Inc. Created on: 03/30/2019.
Writing library : x264 core 155 r2901 7d0ff22
Encoded date : UTC 2019-03-30 07:12:05
Tagged date : UTC 2019-03-30 07:12:05
Color primaries : BT.709
Transfer characteristics : BT.709
Matrix coefficients : BT.709
Audio
ID : 2
Format : AAC
Format/Info : Advanced Audio Codec
Format profile : LC
Codec ID : 40
Duration : 5mn 59s
Bit rate mode : Variable
Bit rate : 128 Kbps
Channel(s) : 2 channels
Channel positions : Front: L R
Sampling rate : 44.1 KHz
Compression mode : Lossy
Stream size : 5.49 MiB (22%)
Title : ISO Media file produced by Google Inc. Created on: 03/30/2019.
Encoded date : UTC 2019-03-30 07:12:05
Tagged date : UTC 2019-03-30 07:12:05

Скриншоты

[cybertorrent.ru].t1650.torrent 
Торрент: Зарегистрирован [ 2019-03-31 15:52 ] · E7413000DEE6962865420041BAAB732B008D122B

Скачать .torrent

Скачать

16 KB

Статус: проверено
Скачан: 0 раз
Размер: 25 MB
terms.php
[Профиль] [ЛС]
Показать сообщения:    
Ответить на тему

Текущее время: 18-Авг 15:01

Часовой пояс: UTC ± 0



Вы не можете начинать темы
Вы не можете отвечать на сообщения
Вы не можете редактировать свои сообщения
Вы не можете удалять свои сообщения
Вы не можете голосовать в опросах
Вы не можете прикреплять файлы к сообщениям
Вы можете скачивать файлы