Среди теней / Among the Shadows (Тьяго Мескита / Tiago Mesquita) [2019, США, ужасы, боевик, триллер, WEB-DLRip] MVO (HDrezka Studio)

Ответить на тему
Статистика раздачи
Размер:  1,46 GB   |    Зарегистрирован:  4 месяца 17 дней   |    Скачан:  1 раз
Сидов:  75  [  0 KB/s  ]   Личеров:  3  [  0 KB/s  ]  
   
 
Автор Сообщение

Lew ®

Пол: Не указан

Стаж: 5 месяцев 6 дней

Сообщений: 378

Создавать темы 31-Мар-2019 15:52

[Цитировать]

Среди теней / Among the Shadows
Страна: США
Жанр: ужасы, боевик, триллер
Год выпуска: 2019
Продолжительность: 01:36:17-Перевод: Любительский (многоголосый закадровый) | HDrezka Studio
Субтитры: нет
Оригинальная аудиодорожка: нет-Режиссер: Тьяго Мескита / Tiago Mesquita-В ролях: Линдси Лохан, Шарлотта Бекетт, Джанни Капальди, Доминик Мадани, Рейнальд Бялес, Барри Джей Минофф, Кристоффель Вердонк, Джон Фландерс, Питер Орган, Дэниэл Хью Келли-Описание: Дядю Кристи Вулф, частного детектива из Брюсселя, убивают. Девушка намерена выяснить, кто стоит за смертью единственного близкого ей человека, но при этом сохранить его тайну от мира людей. Мужчина был оборотнем, а сама Кристи, как его кровный родственник, обладает повышенной чувствительностью к сверхъестественному. Во время расследования детектив понимает, что подземный мир оказался на пороге масштабной войны, которая может затронуть обычных людей. Это осложняет поиски и подвергает опасности жизнь Кристи...-Качество видео: WEB-DLRip
Формат видео: AVI
Видео: 704x400 (1.76:1), 23.976 fps, XviD build 73 ~1964 kbps avg, 0.29 bit/pixel
Аудио: 48 kHz, AC3 Dolby Digital, 2/0 (L,R) ch, ~192 kbps-[box]Сэмпл[/box]-

MediaInfo

Код:Формат : AVI
Формат/Информация : Audio Video Interleave
Размер файла : 1,46 Гбайт
Продолжительность : 1 ч. 36 м.
Общий поток : 2166 Кбит/сек
Название фильма : Among.the.Shadows.2019.AMZN.WEB-DL(1080p).OllanDGroup
Программа кодирования : VirtualDubMod 1.5.10.3 | www.virtualdub-fr.org || (build 2550/release) VirtualDubMod build 2550/release
Авторское право : порошков
Видео
Идентификатор : 0
Формат : MPEG-4 Visual
Профиль формата : Advanced Simple@L5
Настройки формата : BVOP1 / Custom Matrix
Параметр BVOP формата : 1
Параметр QPel формата : Нет
Параметр GMC формата : Без точки перехода
Параметр матрицы формата : Выборочная
Идентификатор кодека : XVID
Идентификатор кодека/Подсказка : XviD
Продолжительность : 1 ч. 36 м.
Битрейт : 1964 Кбит/сек
Ширина : 704 пикселя
Высота : 400 пикселей
Соотношение сторон : 16:9
Частота кадров : 23,976 (24000/1001) кадра/сек
Цветовое пространство : YUV
Субдискретизация насыщенности : 4:2:0
Битовая глубина : 8 бит
Тип развёртки : Прогрессивная
Метод сжатия : С потерями
Бит/(Пиксели*Кадры) : 0.291
Размер потока : 1,32 Гбайт (91%)
Библиотека кодирования : XviD 73
Аудио
Идентификатор : 1
Формат : AC-3
Формат/Информация : Audio Coding 3
Коммерческое название : Dolby Digital
Идентификатор кодека : 2000
Продолжительность : 1 ч. 36 м.
Вид битрейта : Постоянный
Битрейт : 192 Кбит/сек
Каналы : 2 канала
Channel layout : L R
Частота : 48,0 КГц
Частота кадров : 31,250 кадров/сек (1536 SPF)
Битовая глубина : 16 бит
Метод сжатия : С потерями
Размер потока : 132 Мбайт (9%)
Выравнивание : Разделение по промежуткам
Продолжительность промежутка : 42 мс. (1,00 видеокадр)
Время предзагрузки промежутка : 500 мс.
Язык : Не определен
ServiceKind/String : Complete Main

Скриншоты


[cybertorrent.ru].t1651.torrent 
Торрент: Зарегистрирован [ 2019-03-31 15:52 ] · 0BD01E5AEF3079795E17574B52F89E5A316E0637

Скачать .torrent

Скачать

15 KB

Статус: проверено
Скачан: 1 раз
Размер: 1,46 GB
terms.php
[Профиль] [ЛС]
Показать сообщения:    
Ответить на тему

Текущее время: 18-Авг 14:52

Часовой пояс: UTC ± 0



Вы не можете начинать темы
Вы не можете отвечать на сообщения
Вы не можете редактировать свои сообщения
Вы не можете удалять свои сообщения
Вы не можете голосовать в опросах
Вы не можете прикреплять файлы к сообщениям
Вы можете скачивать файлы