МатьОтецСын / MotherFatherSon / Сезон: 1 / Серии: 1-4 из 10 (Джеймс Кент, Чарльз Стёрридж) [2019, Великобритания, триллер., HDTVRip] MVO (LostFilm) + Original

Ответить на тему
Статистика раздачи
Размер:  3,23 GB   |    Зарегистрирован:  4 месяца 18 дней   |    Скачан:  0 раз

Полного источника не было: Никогда

   
 
Автор Сообщение

Рамфоринх ®

Пол: Не указан

Стаж: 5 месяцев 6 дней

Сообщений: 351

Создавать темы 31-Мар-2019 15:52

[Цитировать]

МатьОтецСын / MotherFatherSon Год выпуска: 2019
Страна: Великобритания
Жанр: триллер
Продолжительность: ~01:00:00
Перевод: Профессиональный (многоголосый закадровый) LostFilm
Режиссёр: Джеймс Кент, Чарльз Стёрридж
В ролях: Ричард Гир, Билли Хоул, Хелен Маккрори, Елена Анайя, Нил Бигли, Киран Хайндс, Хью О’Брайэн, Хезер Пирс, Ниам Алгар, Питер Салливан
Описание: Сюжет повествует о могущественной семье, переживающей сложные времена. Главный герой — успешный американский магнат Макс, главный инструмент влияния которого — информация и секреты могущественных людей. Его бизнес-империя оказывается под угрозой, причем опасность исходит от его родного сына Кейдена. Сын справляется со своими комплексами и давлением завышенных ожиданий отца, забываясь с помощью наркотиков и беспорядочных связей. В борьбу с отцом за влияние на сына вступает также его мать — Кэтрин. Пока Макс и Кэтрин борются за душу своего сына, начинается еще одна битва, борьба за сердце нации.

Качество: HDTVRip
Формат: AVI
Видео: XviD, 704x352, 25 fps, ~ 1599 kbps
Аудио 1: 48 kHz, AC3 2 ch, ~192 kbps|LostFilm|
Аудио 2: 48 kHz, AC3 2 ch, ~192 kbps
Субтитры: Нет
Реклама: Отсутствует
Предыдущие и альтернативные раздачи

MediaInfo

Format : AVI
Format/Info : Audio Video Interleave
File size : 844 MiB
Duration : 59mn 3s
Overall bit rate : 1 998 Kbps
Movie name : МатьОтецСын 1х01: Эпизод 1
Director : Бёдвар (HDTVRip)
Writing application : VirtualDubModRus 1.5.10.2 (build 2542/release)
Comment : 31.03.2019
Video
ID : 0
Format : MPEG-4 Visual
Format profile : Advanced Simple@L5
Format settings, BVOP : 1
Format settings, QPel : No
Format settings, GMC : No warppoints
Format settings, Matrix : Default (MPEG)
Codec ID : XVID
Codec ID/Hint : XviD
Duration : 59mn 3s
Bit rate : 1 600 Kbps
Width : 704 pixels
Height : 352 pixels
Display aspect ratio : 2.000
Frame rate : 25.000 fps
Color space : YUV
Chroma subsampling : 4:2:0
Bit depth : 8 bits
Scan type : Progressive
Compression mode : Lossy
Bits/(Pixel*Frame) : 0.258
Stream size : 676 MiB (80%)
Writing library : XviD 67
Audio #1
ID : 1
Format : AC-3
Format/Info : Audio Coding 3
Mode extension : CM (complete main)
Format settings, Endianness : Big
Codec ID : 2000
Duration : 59mn 3s
Bit rate mode : Constant
Bit rate : 192 Kbps
Channel(s) : 2 channels
Channel positions : Front: L R
Sampling rate : 48.0 KHz
Frame rate : 31.250 fps (1536 spf)
Compression mode : Lossy
Stream size : 81.1 MiB (10%)
Alignment : Split accross interleaves
Interleave, duration : 40 ms (1.00 video frame)
Interleave, preload duratio : 500 ms
Audio #2
ID : 2
Format : AC-3
Format/Info : Audio Coding 3
Mode extension : CM (complete main)
Format settings, Endianness : Big
Codec ID : 2000
Duration : 59mn 3s
Bit rate mode : Constant
Bit rate : 192 Kbps
Channel(s) : 2 channels
Channel positions : Front: L R
Sampling rate : 48.0 KHz
Frame rate : 31.250 fps (1536 spf)
Compression mode : Lossy
Stream size : 81.1 MiB (10%)
Alignment : Split accross interleaves
Interleave, duration : 40 ms (1.00 video frame)
Interleave, preload duratio : 500 ms

Скриншоты

Внимание! Раздача ведётся путём добавления новых серий

Внимание! Раздача ведётся путём добавления новых серий; при каждом добавлении создаётся новый торрент. Чтобы начать докачку новой серии,пользователям необходимо сделать следующее:
(1) остановить скачивание,
(2) удалить старый торрент у себя из клиента (старые серии удалять не надо),
(3) скачать новый торрент и запустить его у себя в клиенте вместо старого, при этом указать клиенту путь в старую папку куда и должнопроисходить скачивание новых серий.
Ваш клиент при этом должен произвести хеширование (проверку) старой папки (если не производит сам - помогите ему сделать это), и будет докачивать только те серии
которых у вас ещё нет. Старые серии при этом не удаляются, а продолжают раздаваться!
Eсли вы уже удалили старые серии, то предотвратить повторную закачку старых серий можно, отжав галочку в соответствующих местах при запуске нового торрента.
По возможности, желательно не удалять старые серии как можно дольше чтобы релизёр не столько продолжал раздавать старые серии, а смог сконцентрироваться на новых.
Релиз группы:
[cybertorrent.ru].t1662.torrent 
Торрент: Зарегистрирован [ 2019-03-31 15:52 ] · EDB8B619C9BC42CF84EA26B13400BA26CB861E09

Скачать .torrent

Скачать

17 KB

Статус: проверено
Скачан: 0 раз
Размер: 3,23 GB
terms.php
[Профиль] [ЛС]
Показать сообщения:    
Ответить на тему

Текущее время: 19-Авг 06:12

Часовой пояс: UTC ± 0



Вы не можете начинать темы
Вы не можете отвечать на сообщения
Вы не можете редактировать свои сообщения
Вы не можете удалять свои сообщения
Вы не можете голосовать в опросах
Вы не можете прикреплять файлы к сообщениям
Вы можете скачивать файлы