Т-34 (Алексей Сидоров) [2018, драма, военный, приключения, BDRip-AVC]

Ответить на тему
Статистика раздачи
Размер:  2,84 GB   |    Зарегистрирован:  4 месяца 22 дня   |    Скачан:  0 раз

Полного источника не было: Никогда

   
 
Автор Сообщение

Rodin ®

Пол: Не указан

Стаж: 5 месяцев 12 дней

Сообщений: 230

Создавать темы 01-Апр-2019 16:16

[Цитировать]

Т-34- Жанр: драма, военный, приключения
Год выпуска: 2018
Продолжительность: 02:19:08
Субтитры: русские, английские
Навигация по главам: есть
Режиссер: Алексей Сидоров
В ролях: Александр Петров (Николай Ивушкин), Виктор Добронравов (Василенок), Ирина Старшенбаум (Аня), Винценц Кифер (Клаус), Петр Скворцов (Лыков), Семен Трескунов (Тетеря), Антон Богданов (Волчок), Василий Уриевский, Василий Буткевич (ординарец Корина), Ярослав Штефан (Макеев, пулеметчик), Кирилл Лопаткин (немецкий пехотинец), Полина Волкова (дочь хозяйки)
Описание: Во времена величайших испытаний человечества, когда от каждого действия зависят жизни любимых, два заклятых врага начнут свое противостояние.
Оказавшись в плену, вчерашний курсант Ивушкин планирует дерзкий побег. Он собирает свой экипаж и на легендарной «тридцатьчетверке» бросает вызов немецким танковым асам во главе с Ягером. Ради своей любви и Родины он готов идти до конца.- -Качество: BDRip-AVC (исходник - Blu-ray|T-34_2018_RUS_BLUEBIRD)
Формат видео: MKV
Видео: x264, 1152x482 (2.40:1) 24 fps, ~2417 kbps, 0,181 bit/pixel
Аудио: 48 kHz, AC3 Dolby Digital, 5.1 (Front: L C R, Side: L R, LFE) ch, ~448 kbps
Формат субтитров: softsub (SRT)-

MediaInfo | x264 log

Format : Matroska
Format version : Version 4 / Version 2
File size : 2.84 GiB
Duration : 2 h 19 min
Overall bit rate : 2 924 kb/s
Movie name : Т-34 (2018) :: AFM ::
Encoded date : UTC 2019-03-31 00:23:24
Writing application : mkvmerge v8.3.0 ('Over the Horizon') 32bit
Writing library : libebml v1.3.1 + libmatroska v1.4.2
Cover : Yes
Attachments : cover.jpg
Video
ID : 1
Format : AVC
Format/Info : Advanced Video Codec
Format profile : High@L4.1
Format settings, CABAC : Yes
Format settings, ReFrames : 12 frames
Codec ID : V_MPEG4/ISO/AVC
Duration : 2 h 19 min
Bit rate : 2 418 kb/s
Width : 1 152 pixels
Height : 482 pixels
Display aspect ratio : 2.40:1
Frame rate mode : Constant
Frame rate : 24.000 FPS
Color space : YUV
Chroma subsampling : 4:2:0
Bit depth : 8 bits
Scan type : Progressive
Bits/(Pixel*Frame) : 0.181
Stream size : 2.35 GiB (83%)
Title : BDRip by AFM
Writing library : x264 core 157 r2867+150 7e91e0e t_mod_Custom_2 [8-bit@all X86_64]
Encoding settings : cabac=1 / ref=12 / deblock=1:-3:-2 / analyse=0x3:0x113 / me=umh / subme=10 / psy=1 / fade_compensate=0.00 / psy_rd=1.00:0.00 / mixed_ref=1 / me_range=32 / chroma_me=0 / trellis=2 / 8x8dct=1 / cqm=0 / deadzone=21,11 / fast_pskip=0 / chroma_qp_offset=-2 / threads=6 / lookahead_threads=1 / sliced_threads=0 / nr=0 / decimate=1 / interlaced=0 / bluray_compat=0 / constrained_intra=0 / fgo=0 / bframes=14 / b_pyramid=2 / b_adapt=2 / b_bias=0 / direct=1 / weightb=1 / open_gop=0 / weightp=2 / keyint=240 / keyint_min=23 / scenecut=40 / intra_refresh=0 / rc_lookahead=60 / rc=crf / mbtree=0 / crf=18.6000 / qcomp=0.65 / qpmin=0:0:0 / qpmax=69:69:69 / qpstep=4 / vbv_maxrate=50000 / vbv_bufsize=62500 / crf_max=0.0 / nal_hrd=none / filler=0 / ip_ratio=1.35 / pb_ratio=1.27 / aq=3:0.85 / aq-sensitivity=10.00 / aq-factor=1.00:1.00:1.00 / aq2=0 / aq3=0
Language : Russian
Default : Yes
Forced : No
Audio
ID : 2
Format : AC-3
Format/Info : Audio Coding 3
Mode extension : CM (complete main)
Format settings, Endianness : Big
Codec ID : A_AC3
Duration : 2 h 19 min
Bit rate mode : Constant
Bit rate : 448 kb/s
Channel(s) : 6 channels
Channel positions : Front: L C R, Side: L R, LFE
Sampling rate : 48.0 kHz
Frame rate : 31.250 FPS (1536 spf)
Compression mode : Lossy
Stream size : 446 MiB (15%)
Title : AC3 5.1 ~448 kbps
Language : Russian
Default : Yes
Forced : No
Text #1
ID : 3
Format : UTF-8
Codec ID : S_TEXT/UTF8
Codec ID/Info : UTF-8 Plain Text
Language : Russian
Default : No
Forced : No
Text #2
ID : 4
Format : UTF-8
Codec ID : S_TEXT/UTF8
Codec ID/Info : UTF-8 Plain Text
Language : English
Default : No
Forced : No
Menu
00:00:00.000 : ru:Глава 1
00:01:17.875 : ru:Глава 2
00:12:31.250 : ru:Глава 3
00:24:54.041 : ru:Глава 4
00:35:06.916 : ru:Глава 5
00:49:36.291 : ru:Глава 6
01:03:21.041 : ru:Глава 7
01:17:58.583 : ru:Глава 8
01:30:55.458 : ru:Глава 9
01:46:42.666 : ru:Глава 10
02:03:33.916 : ru:Глава 11

x264

x264 [info]: frame I:1731 Avg QP:15.89 size: 63151
x264 [info]: frame P:42076 Avg QP:17.36 size: 26754
x264 [info]: frame B:156561 Avg QP:19.77 size: 8602
x264 [info]: consecutive B-frames: 2.2% 2.0% 7.2% 21.8% 17.3% 30.6% 6.9% 5.0% 2.8% 0.8% 0.7% 0.4% 0.5% 1.4% 0.4%
x264 [info]: mb I I16..4: 7.7% 75.4% 16.9%
x264 [info]: mb P I16..4: 2.3% 13.1% 2.1% P16..4: 36.4% 27.9% 13.6% 0.0% 0.0% skip: 4.7%
x264 [info]: mb B I16..4: 0.1% 1.1% 0.2% B16..8: 40.8% 11.6% 2.6% direct: 5.8% skip:37.8% L0:42.8% L1:45.8% BI:11.4%
x264 [info]: 8x8 transform intra:75.7% inter:67.2%
x264 [info]: coded y,uvDC,uvAC intra: 80.6% 82.1% 61.5% inter: 22.8% 21.2% 5.9%
x264 [info]: i16 v,h,dc,p: 50% 11% 5% 34%
x264 [info]: i8 v,h,dc,ddl,ddr,vr,hd,vl,hu: 15% 8% 6% 9% 13% 12% 13% 11% 13%
x264 [info]: i4 v,h,dc,ddl,ddr,vr,hd,vl,hu: 24% 6% 4% 9% 13% 12% 12% 9% 11%
x264 [info]: i8c dc,h,v,p: 41% 24% 19% 16%
x264 [info]: Weighted P-Frames: Y:7.2% UV:4.0%
x264 [info]: ref P L0: 51.2% 12.2% 14.8% 5.6% 4.3% 3.1% 2.6% 1.5% 1.4% 1.1% 1.1% 1.0% 0.1% 0.0%
x264 [info]: ref B L0: 75.2% 10.6% 5.3% 2.6% 1.8% 1.4% 1.1% 0.7% 0.6% 0.4% 0.2%
x264 [info]: ref B L1: 94.3% 5.7%
x264 [info]: kb/s:2473.92

Скриншоты

с названием

Если ваш рейтинг упадет ниже 0,3, вы не сможете скачивать торренты! Подробнее о рейтинге.

[cybertorrent.ru].t1668.torrent 
Торрент: Зарегистрирован [ 2019-04-01 16:16 ] · 40A04C26366720545AA8608AAE9713B60595F1C9

Скачать .torrent

Скачать

15 KB

Статус: проверено
Скачан: 0 раз
Размер: 2,84 GB
terms.php
[Профиль] [ЛС]
Показать сообщения:    
Ответить на тему

Текущее время: 24-Авг 15:33

Часовой пояс: UTC ± 0



Вы не можете начинать темы
Вы не можете отвечать на сообщения
Вы не можете редактировать свои сообщения
Вы не можете удалять свои сообщения
Вы не можете голосовать в опросах
Вы не можете прикреплять файлы к сообщениям
Вы можете скачивать файлы