Смолфут / Smallfoot (Кэри Киркпатрик / Karey Kirkpatrick, Джейсон Рейсиг / Jason Reisig) [2018, мультфильм, мюзикл, фэнтези, комедия, приключения, семейный, BDRip-AVC] Dub

Ответить на тему
Статистика раздачи
Размер:  1,49 GB   |    Зарегистрирован:  4 месяца 2 дня   |    Скачан:  0 раз

Полного источника не было: Никогда

   
 
Автор Сообщение

karlll ®

Пол: Не указан

Стаж: 4 месяца 8 дней

Сообщений: 149

Создавать темы 18-Мар-2019 10:01

[Цитировать]

Смолфут / Smallfoot- Год выхода: 2018
Выпущено: США / Warner Bros. Pictures
Жанр: мультфильм, мюзикл, фэнтези, комедия, приключения, семейный
Продолжительность: 01:36:17
Перевод: Профессиональный (полное дублирование)
Субтитры: Русские (форсированные)
Навигация по главам: Есть (12 глав)-Режиссер:
Кэри Киркпатрик / Karey Kirkpatrick, Джейсон Рейсиг / Jason Reisig-В ролях:
Ченнинг Татум (Migo), Джеймс Корден (Percy), Зендея (Meechee), Коммон (Stonekeeper), Леброн Джеймс (Gwangi), Дэнни ДеВито (Dorgle), Джина Родригез (Kolka), Яра Шахиди (Brenda), Эли Генри (Fleem), Джимми Татро (Thorp)-О фильме:
Молодой находчивый йети сталкивается с тем, кого, по его глубокому убеждению, не существует — человеком. Новости о «смолфуте» приносят ему славу и шанс завоевать девушку его мечты. А ещё — вызывают переполох среди простых йети, которые теперь гадают, кто же ещё обитает в большом мире за пределами их маленькой заснеженной деревушки.-Релиз групп | | IMDB | КиноПоиск | Сэмпл |-Качество: BDRip-AVC [Smallfoot.2018.BluRay.1080p.AVC.DTS-HD.MA5.1-CHDBits]
Формат: MKV
Видео: 1056x440 (2,40:1), 23.976 fps, x264 ~1787 kbps avg, 0.160 bit/pixel
Аудио: 48 kHz, AC3 Dolby Digital, 3/2 (L,C,R,l,r) + LFE ch, ~384.00 kbps avg
Формат субтитров: Softsub (.srt*)-

Скриншоты

-

MediaInfo

Код:Общее
Полное имя : D:\Smallfoot_2018_BDRip-AVC_by_Dalemake.mkv
Формат : Matroska
Версия формата : Version 4 / Version 2
Размер файла : 1,49 Гбайт
Продолжительность : 1 ч. 36 м.
Общий поток : 2215 Кбит/сек
Название фильма : [Smallfoot_2018_All Films_Rutracker.org_by Dalemake]
Дата кодирования : UTC 2018-12-26 20:45:06
Программа кодирования : mkvmerge v7.8.0 ('River Man') 32bit built on Apr 3 2015 12:11:22
Библиотека кодирования : libebml v1.3.1 + libmatroska v1.4.2
DURATION : 00:55:58.317000000
NUMBER_OF_FRAMES : 19
NUMBER_OF_BYTES : 729
_STATISTICS_WRITING_APP : mkvmerge v7.8.0 ('River Man') 32bit built on Apr 3 2015 12:11:22
_STATISTICS_WRITING_DATE_UTC : 2018-12-26 20:45:06
_STATISTICS_TAGS : BPS DURATION NUMBER_OF_FRAMES NUMBER_OF_BYTES
Видео
Идентификатор : 1
Формат : AVC
Формат/Информация : Advanced Video Codec
Профиль формата : High@L4.1
Параметр CABAC формата : Да
Параметр ReFrames формата : 10 кадров
Идентификатор кодека : V_MPEG4/ISO/AVC
Продолжительность : 1 ч. 36 м.
Битрейт : 1787 Кбит/сек
Ширина : 1056 пикселей
Высота : 440 пикселей
Соотношение сторон : 2,40:1
Частота кадров : 23,976 кадра/сек
Цветовое пространство : YUV
Субдискретизация насыщенности : 4:2:0
Битовая глубина : 8 бит
Тип развёртки : Прогрессивная
Бит/(Пиксели*Кадры) : 0.160
Размер потока : 1,20 Гбайт (81%)
Заголовок : [Smallfoot_2018_All Films_Rutracker.org_by Dalemake]
Библиотека кодирования : x264 core 157 r2935 545de2f
Настройки программы : cabac=1 / ref=10 / deblock=1:-2:-1 / analyse=0x3:0x133 / me=umh / subme=10 / psy=1 / psy_rd=1.00:0.00 / mixed_ref=1 / me_range=24 / chroma_me=1 / trellis=2 / 8x8dct=1 / cqm=0 / deadzone=21,11 / fast_pskip=1 / chroma_qp_offset=-4 / threads=6 / lookahead_threads=1 / sliced_threads=0 / nr=0 / decimate=0 / interlaced=0 / bluray_compat=0 / constrained_intra=0 / bframes=11 / b_pyramid=2 / b_adapt=2 / b_bias=0 / direct=1 / weightb=1 / open_gop=0 / weightp=2 / keyint=240 / keyint_min=23 / scenecut=40 / intra_refresh=0 / rc_lookahead=60 / rc=crf / mbtree=0 / crf=19.0 / qcomp=0.60 / qpmin=0 / qpmax=69 / qpstep=4 / vbv_maxrate=50000 / vbv_bufsize=62500 / crf_max=0.0 / nal_hrd=none / filler=0 / ip_ratio=1.40 / pb_ratio=1.35 / aq=1:1.00
Язык : English
Default : Да
Forced : Нет
DURATION : 01:36:17.740000000
NUMBER_OF_FRAMES : 138527
NUMBER_OF_BYTES : 1321497066
_STATISTICS_WRITING_APP : mkvmerge v7.8.0 ('River Man') 32bit built on Apr 3 2015 12:11:22
_STATISTICS_WRITING_DATE_UTC : 2018-12-26 20:45:06
_STATISTICS_TAGS : BPS DURATION NUMBER_OF_FRAMES NUMBER_OF_BYTES
Аудио
Идентификатор : 2
Формат : AC-3
Формат/Информация : Audio Coding 3
Расширение режима : CM (complete main)
Параметр Endianness формата : Big
Идентификатор кодека : A_AC3
Продолжительность : 1 ч. 36 м.
Вид битрейта : Постоянный
Битрейт : 384 Кбит/сек
Каналы : 6 каналов
Расположение каналов : Front: L C R, Side: L R, LFE
Частота : 48,0 КГц
Битовая глубина : 16 бит
Метод сжатия : С потерями
Размер потока : 264 Мбайт (17%)
Заголовок : Dub - iTunes Russia
Язык : Russian
Default : Да
Forced : Нет
Текст
Идентификатор : 3
Формат : UTF-8
Идентификатор кодека : S_TEXT/UTF8
Идентификатор кодека/Информация : UTF-8 Plain Text
Заголовок : Forced
Язык : Russian
Default : Да
Forced : Да
Меню
00:00:00.000 : :Capítulo 01
00:09:56.262 : :Capítulo 02
00:21:36.295 : :Capítulo 03
00:32:10.637 : :Capítulo 04
00:38:33.603 : :Capítulo 05
00:49:59.705 : :Capítulo 06
00:55:37.167 : :Capítulo 07
01:01:53.209 : :Capítulo 08
01:12:04.278 : :Capítulo 09
01:18:26.076 : :Capítulo 10
01:26:16.797 : :Capítulo 11
01:31:12.300 : :Capítulo 12
-
[cybertorrent.ru].t169.torrent 
Торрент: Зарегистрирован [ 2019-03-18 10:04 ] · 89368D9FF72B9B880144264CACCABF51B63B41A3

Скачать .torrent

Скачать

15 KB

Статус: проверено
Скачан: 0 раз
Размер: 1,49 GB
terms.php
[Профиль] [ЛС]
Показать сообщения:    
Ответить на тему

Текущее время: 21-Июл 02:31

Часовой пояс: UTC ± 0



Вы не можете начинать темы
Вы не можете отвечать на сообщения
Вы не можете редактировать свои сообщения
Вы не можете удалять свои сообщения
Вы не можете голосовать в опросах
Вы не можете прикреплять файлы к сообщениям
Вы можете скачивать файлы