Я подарю тебе рассвет / Серии: 1-4 из 4 (Валерий Ибрагимов) [2018, мелодрама, драма, HDTVRip]

Ответить на тему
Статистика раздачи
Размер:  2,75 GB   |    Зарегистрирован:  18 дней   |    Скачан:  0 раз
Сидов:  40  [  0 KB/s  ]   Личеров:  5  [  0 KB/s  ]  
   
 
Автор Сообщение

sss777sss ®

Пол: Не указан

Стаж: 1 месяц 9 дней

Сообщений: 130

Создавать темы 02-Апр-2019 16:38

[Цитировать]

Я подарю тебе рассвет
Год выпуска: 2018
Производство: Armada FILMS
Жанр: мелодрама, драма
Продолжительность: ~00:55:00 серия
Субтитры: нет
Режиссёр: Валерий Ибрагимов
В ролях: Алёна Коломина, Ксения Лукьянчикова, Кирилл Кузнецов, Алёна Хмельницкая, Анатолий Котенёв, Анна Ардова, Прохор Дубравин, Сергей Фролов, Наталия Васько, Татьяна Вашневская, Вероника Братусина
Описание: 21-летняя Карина – в день похорон родителей узнает, что они совсем не те, за кого себя выдавали. Они – преступники, похитившие ее в 4-летнем возрасте и воспитавшие, как собственную дочь. Карина возвращается в родную семью, где для нее все чужие, – к любящему отцу и тихо ненавидящей ее мачехе. Девушку ждут новые испытания. Она влюбляется в Егора – сына женщины, которая заказала ее похищение и довела родную мать Карины до самоубийства… Более того, главная героиня сталкивается с жестким соперничеством собственной сестры за сердце возлюбленного...

Реклама: Нет.
Кинопоиск
Все раздачи сериала
Sample
Качество: HDTVRip - Files-x
Формат: AVI
Видео кодек: XviD
Аудио кодек: AC3
Видео: 720x400 (1.80:1), 25 fps, XviD build 73 ~1600 kbps avg, 0.222 bit/pixel
Аудио: 48.0 kHz, AC3 Dolby Digital, 2/0 (L,R) ch, ~ 192 kbps

MI

General
Complete name : D:\Ya.podaryu.tebe.rassvet..2018.HDTVRip.Files-x\Ya.podaryu.tebe.rassvet.01.2018.HDTVRip.Files-x.avi
Format : AVI
Format/Info : Audio Video Interleave
File size : 712 MiB
Duration : 55 min 14 s
Overall bit rate : 1 801 kb/s
Writing application : VirtualDubMod 1.5.10.3 | www.virtualdub-fr.org || (build 2550/release)
Writing library : VirtualDubMod build 2550/release
Video
ID : 0
Format : MPEG-4 Visual
Format profile : Advanced Simple@L5
Format settings : BVOP1 / Custom Matrix
Format settings, BVOP : 1
Format settings, QPel : No
Format settings, GMC : No warppoints
Format settings, Matrix : Custom
Codec ID : XVID
Codec ID/Hint : XviD
Duration : 55 min 14 s
Bit rate : 1 600 kb/s
Width : 720 pixels
Height : 400 pixels
Display aspect ratio : 16:9
Frame rate : 25.000 FPS
Color space : YUV
Chroma subsampling : 4:2:0
Bit depth : 8 bits
Scan type : Progressive
Compression mode : Lossy
Bits/(Pixel*Frame) : 0.222
Stream size : 632 MiB (89%)
Writing library : XviD 73
Audio
ID : 1
Format : AC-3
Format/Info : Audio Coding 3
Codec ID : 2000
Duration : 55 min 14 s
Bit rate mode : Constant
Bit rate : 192 kb/s
Channel(s) : 2 channels
Channel positions : Front: L R
Sampling rate : 48.0 kHz
Frame rate : 31.250 FPS (1536 SPF)
Bit depth : 16 bits
Compression mode : Lossy
Stream size : 75.9 MiB (11%)
Alignment : Split accross interleaves
Interleave, duration : 40 ms (1.00 video frame)
Interleave, preload duratio : 500 ms
Service kind : Complete Main

Скриншоты


Если ваш рейтинг упадет ниже 0,3, вы не сможете скачивать торренты! Подробнее о рейтинге.

[cybertorrent.ru].t1695.torrent 
Торрент: Зарегистрирован [ 2019-04-02 16:38 ] · 168E82C5F4382D6A0003BEC6FCCA9C935509BB3D

Скачать .torrent

Скачать

15 KB

Статус: проверено
Скачан: 0 раз
Размер: 2,75 GB
terms.php
[Профиль] [ЛС]
Показать сообщения:    
Ответить на тему

Текущее время: 21-Апр 15:02

Часовой пояс: UTC ± 0



Вы не можете начинать темы
Вы не можете отвечать на сообщения
Вы не можете редактировать свои сообщения
Вы не можете удалять свои сообщения
Вы не можете голосовать в опросах
Вы не можете прикреплять файлы к сообщениям
Вы можете скачивать файлы