Радиозвезды / Звезы радиоэфира / Радиоведущие / Radiostars (Ромен Леви / Romain Levy) [2012, Франция, комедия, роуд-муви, DVB] MVO (НТВ+) + Original (Fra) + Sub (Rus, Eng, Fra, Deu)

Ответить на тему
Статистика раздачи
Размер:  2,38 GB   |    Зарегистрирован:  21 день   |    Скачан:  0 раз

Полного источника не было: Никогда

   
 
Автор Сообщение

cyber ®

Пол: Не указан

Стаж: 1 месяц 13 дней

Сообщений: 61

Создавать темы 03-Апр-2019 17:08

[Цитировать]

Радиозвезды
Radiostars- Страна: Франция
Жанр: комедия, роуд-муви
Год выпуска: 2012
Продолжительность: 01:37:40Перевод: Профессиональный (многоголосый закадровый) НТВ+
Субтитры: русские (перевод И.Рыбкиной, ECLAIR), английские, французские, французские-телетекст, немецкие, нидерландские, румынские, испанские
Оригинальная аудиодорожка: французский
Режиссер: Ромен Леви / Romain Lévy
В ролях: Маню Пайе / Manu Payet (Alex), Кловис Корнийяк / Clovis Cornillac (Arnold), Дуглас Атталь / Douglas Attal (Ben), Паскаль Демолон / Pascal Demolon (Cyril), Сэм Карманн / Sam Karmann (J.R., le père de Ben), Ана Жирардо / Ana Girardot (Sabrina), Лоран Бато / Laurent Bateau (Frédérico), Алис Белаиди / Alice Belaidi (Nassima, la femmed e Léonard de Vitry)
Описание: Мечтавший стать стэнд-ап комиком в Нью-Йорке Бен потерпел полную неудачу, и его личная жизнь тоже лежит в руинах. Он возвращается в Париж, где получает работу на радиостанции Blast FM. Там он знакомится со своими новыми коллегами по передаче Breakfast-club Алексом и Арнольдом. Но вскоре после его прибытия появляется серьёзная проблема — аудитория радиостанции резко снижается. Вместе со своими новыми друзьями Бен решает отправиться в автобусный тур по Франции с тем, чтобы встретиться со своими слушателями и спасти Breakfast-club. Для заносчивых парижан поездка по стране откроет много нового и преподнесёт массу неожиданностей.
Доп. информация: Hot Bird (13.0°E) TV5MONDE Europe DVB-S
Награды: 3 награды Festival international du film de comédie de l'Alpe d'Huez 2012 (Гран-при группы телеканалов OCS - Orange Cinéma Séries, приз Digimage за выдающийся профессионализм режиссеру, приз лучшей актрисе второго плана - Alice Belaidi) + 2 номинации (приз зрительских симпатий радиостанции Europe 1, Специальный приз жюри); номинация на лучший полнометражный художественный фильм My French Film Festival 2013.
Качество видео: DVB
Формат видео: MKV
Видео: MPEG Video 2, 720x576@1024x576 (16:9), 25 fps, ~3038 kbps avg, 0.293 bit/pixel
Аудио 1: 48 kHz, AC-3, 2 ch, 192.00 kbps avg - русский
Аудио 2: 48 kHz, AC-3, 2 ch, 192.00 kbps avg - французский
Формат субтитров: softsub (SRT)

MediaInfo

General
Unique ID : 41052688179908744343634502046351692840 (0x1EE275CC26555A9BEBEEE89566091428)
Complete name : [apreder]Radiostars(2012)DVB.mkv
Format : Matroska
Format version : Version 2
File size : 2.38 GiB
Duration : 1 h 37 min
Overall bit rate mode : Variable
Overall bit rate : 3 492 kb/s
Movie name : Radiostars
Released date : 2012-04-11
Encoded date : UTC 2019-04-02 15:54:07
Writing application : mkvmerge v32.0.0 ('Astral Progressions') 64-bit
Writing library : libebml v1.3.7 + libmatroska v1.5.0
Cover : Yes
Attachments : cover.jpg / small_cover.jpg
ACTOR : Manu Payet, Clovis Cornillac, Douglas Attal
DIRECTOR : Romain Levy
GENRE : Comedy, Drama
IMDB : tt2104080
KEYWORDS : rutracker.org
LAW_RATING : 16+
Video
ID : 1
Format : MPEG Video
Format version : Version 2
Format profile : Main@Main
Format settings : CustomMatrix / BVOP
Format settings, BVOP : Yes
Format settings, Matrix : Custom
Format settings, GOP : M=4, N=12
Format settings, picture structure : Frame
Codec ID : V_MPEG2
Codec ID/Info : MPEG 1 or 2 Video
Duration : 1 h 37 min
Bit rate mode : Variable
Bit rate : 3 038 kb/s
Maximum bit rate : 15.0 Mb/s
Width : 720 pixels
Height : 576 pixels
Display aspect ratio : 16:9
Active Format Description : Letterbox 16:9 image
Frame rate mode : Constant
Frame rate : 25.000 FPS
Standard : PAL
Color space : YUV
Chroma subsampling : 4:2:0
Bit depth : 8 bits
Scan type : Interlaced
Scan order : Top Field First
Compression mode : Lossy
Bits/(Pixel*Frame) : 0.293
Stream size : 2.07 GiB (87%)
Default : Yes
Forced : No
Audio #1
ID : 2
Format : AC-3
Format/Info : Audio Coding 3
Commercial name : Dolby Digital
Codec ID : A_AC3
Duration : 1 h 37 min
Bit rate mode : Constant
Bit rate : 192 kb/s
Channel(s) : 2 channels
Channel layout : L R
Sampling rate : 48.0 kHz
Frame rate : 31.250 FPS (1536 SPF)
Bit depth : 16 bits
Compression mode : Lossy
Stream size : 134 MiB (5%)
Language : Russian
Service kind : Complete Main
Default : Yes
Forced : No
Audio #2
ID : 3
Format : AC-3
Format/Info : Audio Coding 3
Commercial name : Dolby Digital
Codec ID : A_AC3
Duration : 1 h 37 min
Bit rate mode : Constant
Bit rate : 192 kb/s
Channel(s) : 2 channels
Channel layout : L R
Sampling rate : 48.0 kHz
Frame rate : 31.250 FPS (1536 SPF)
Bit depth : 16 bits
Compression mode : Lossy
Stream size : 134 MiB (5%)
Language : French
Service kind : Complete Main
Default : No
Forced : No
Text #1
ID : 4
Format : UTF-8
Codec ID : S_TEXT/UTF8
Codec ID/Info : UTF-8 Plain Text
Language : Russian
Default : No
Forced : No
Text #2
ID : 5
Format : UTF-8
Codec ID : S_TEXT/UTF8
Codec ID/Info : UTF-8 Plain Text
Language : English
Default : No
Forced : No
Text #3
ID : 6
Format : UTF-8
Codec ID : S_TEXT/UTF8
Codec ID/Info : UTF-8 Plain Text
Language : French
Default : No
Forced : No
Text #4
ID : 7
Format : UTF-8
Codec ID : S_TEXT/UTF8
Codec ID/Info : UTF-8 Plain Text
Title : Teletexte
Language : French
Default : No
Forced : No
Text #5
ID : 8
Format : UTF-8
Codec ID : S_TEXT/UTF8
Codec ID/Info : UTF-8 Plain Text
Language : German
Default : No
Forced : No
Text #6
ID : 9
Format : UTF-8
Codec ID : S_TEXT/UTF8
Codec ID/Info : UTF-8 Plain Text
Language : Dutch
Default : No
Forced : No
Text #7
ID : 10
Format : UTF-8
Codec ID : S_TEXT/UTF8
Codec ID/Info : UTF-8 Plain Text
Language : rom
Default : No
Forced : No
Text #8
ID : 11
Format : UTF-8
Codec ID : S_TEXT/UTF8
Codec ID/Info : UTF-8 Plain Text
Language : Spanish
Default : No
Forced : No

Скриншот c названием фильма

Скриншоты


Резервные скриншоты


- [1'316]

Если ваш рейтинг упадет ниже 0,3, вы не сможете скачивать торренты! Подробнее о рейтинге.

[cybertorrent.ru].t1700.torrent 
Торрент: Зарегистрирован [ 2019-04-03 17:08 ] · 21CBF8E375FEEE0AB7FDA025B74736AB85B0F048

Скачать .torrent

Скачать

24 KB

Статус: проверено
Скачан: 0 раз
Размер: 2,38 GB
terms.php
[Профиль] [ЛС]
Показать сообщения:    
Ответить на тему

Текущее время: 25-Апр 14:46

Часовой пояс: UTC ± 0



Вы не можете начинать темы
Вы не можете отвечать на сообщения
Вы не можете редактировать свои сообщения
Вы не можете удалять свои сообщения
Вы не можете голосовать в опросах
Вы не можете прикреплять файлы к сообщениям
Вы можете скачивать файлы