Королевство / El reino / The Realm (Родриго Сорогойен / Rodrigo Sorogoyen) [2018, Испания, Франция, триллер, драма, BDRip] MVO (HDrezka Studio)

Ответить на тему
Статистика раздачи
Размер:  1,46 GB   |    Зарегистрирован:  15 дней   |    Скачан:  0 раз
Сидов:  17  [  0 KB/s  ]  
   
 
Автор Сообщение

солнышко ®

Пол: Не указан

Стаж: 1 месяц 7 дней

Сообщений: 170

Создавать темы 03-Апр-2019 17:08

[Цитировать]

Королевство / El reino / The Realm
Страна: Испания, Франция
Жанр: триллер, драма
Год выпуска: 2018
Продолжительность: 02:11:24-Перевод: Любительский (многоголосый закадровый) | HDrezka Studio
Субтитры: нет
Оригинальная аудиодорожка: нет-Режиссер: Родриго Сорогойен / Rodrigo Sorogoyen-В ролях: Антонио де ла Торре, Моника Лопес, Хозе Мария Поу, Барбара Ленни, Начо Фреснеда, Ана Вахенер, Луис Саера, Франциско Рейс, Мария де Нати, Давид Лоренте-Описание: Коллеги по политической партии наслаждаются жизнью, роскошными яхтами и дорогими ресторанами. Их ежедневные занятия включают в себя отмывание денег, махинации с земельными участками, поездки в Мадрид и обмен услугами с местными бизнесменами. У влиятельного регионального вице-секретаря Мануэля есть все шансы стать следующим президентом автономного сообщества, переехать в Мадрид и попасть в национальную политику. Однако его идеальная жизнь рушится после утечки информации о нем и его лучшем друге Пако, что приводит к большому коррупционному скандалу...- -Качество видео: BDRip
Формат видео: AVI
Видео: 720x320 (2.25:1), 23.976 fps, XviD build 73 ~1388 kbps avg, 0.25 bit/pixel
Аудио: 48 kHz, AC3 Dolby Digital, 2/0 (L,R) ch, ~192 kbps-[box]Сэмпл[/box]-

MediaInfo

Код:Формат : AVI
Формат/Информация : Audio Video Interleave
Размер файла : 1,46 Гбайт
Продолжительность : 2 ч. 11 м.
Общий поток : 1590 Кбит/сек
Название фильма : Королевство_2018_BDRip
Программа кодирования : VirtualDubMod 1.5.10.3 | www.virtualdub-fr.org || (build 2550/release) VirtualDubMod build 2550/release
Авторское право : порошков
Видео
Идентификатор : 0
Формат : MPEG-4 Visual
Профиль формата : Advanced Simple@L5
Настройки формата : BVOP1 / Custom Matrix
Параметр BVOP формата : 1
Параметр QPel формата : Нет
Параметр GMC формата : Без точки перехода
Параметр матрицы формата : Выборочная
Идентификатор кодека : XVID
Идентификатор кодека/Подсказка : XviD
Продолжительность : 2 ч. 11 м.
Битрейт : 1388 Кбит/сек
Ширина : 720 пикселей
Высота : 320 пикселей
Соотношение сторон : 2,25:1
Частота кадров : 23,976 (24000/1001) кадра/сек
Цветовое пространство : YUV
Субдискретизация насыщенности : 4:2:0
Битовая глубина : 8 бит
Тип развёртки : Прогрессивная
Метод сжатия : С потерями
Бит/(Пиксели*Кадры) : 0.251
Размер потока : 1,27 Гбайт (87%)
Библиотека кодирования : XviD 73
Аудио
Идентификатор : 1
Формат : AC-3
Формат/Информация : Audio Coding 3
Коммерческое название : Dolby Digital
Идентификатор кодека : 2000
Продолжительность : 2 ч. 11 м.
Вид битрейта : Постоянный
Битрейт : 192 Кбит/сек
Каналы : 2 канала
Channel layout : L R
Частота : 48,0 КГц
Частота кадров : 31,250 кадров/сек (1536 SPF)
Битовая глубина : 16 бит
Метод сжатия : С потерями
Размер потока : 180 Мбайт (12%)
Выравнивание : Разделение по промежуткам
Продолжительность промежутка : 42 мс. (1,00 видеокадр)
Время предзагрузки промежутка : 500 мс.
Язык : Не определен
ServiceKind/String : Complete Main

Скриншоты


Если ваш рейтинг упадет ниже 0,3, вы не сможете скачивать торренты! Подробнее о рейтинге.

[cybertorrent.ru].t1710.torrent 
Торрент: Зарегистрирован [ 2019-04-03 17:08 ] · 480974955D7B29C5C9B94DB4FFA627762D770A6B

Скачать .torrent

Скачать

15 KB

Статус: проверено
Скачан: 0 раз
Размер: 1,46 GB
terms.php
[Профиль] [ЛС]
Показать сообщения:    
Ответить на тему

Текущее время: 19-Апр 14:39

Часовой пояс: UTC ± 0



Вы не можете начинать темы
Вы не можете отвечать на сообщения
Вы не можете редактировать свои сообщения
Вы не можете удалять свои сообщения
Вы не можете голосовать в опросах
Вы не можете прикреплять файлы к сообщениям
Вы можете скачивать файлы