Слушая Бетховена (Гарри Бардин) [2015, Россия, Мультфильм для взрослых, рисованный, короткометражный, WEBRip]

Ответить на тему
Статистика раздачи
Размер:  77 MB   |    Зарегистрирован:  2 месяца 7 дней   |    Скачан:  0 раз

Полного источника не было: Никогда

   
 
Автор Сообщение

xelon ®

Пол: Не указан

Стаж: 2 месяца 13 дней

Сообщений: 76

Создавать темы 18-Мар-2019 10:01

[Цитировать]

Слушая Бетховена
Страна: Россия
Жанр: Мультфильм для взрослых, рисованный, короткометражный
Продолжительность: 00:09:20
Год выпуска: 2015
Русские субтитры: нет
Режиссёр: Гарри Бардин
Описание: Философская притча о величии свободы.
Каменные джунгли мрачного города не оставляют ни одного ростка зелени. Но жажда жизни сильнее любых оков.
Мультфильм взят с КИНОЗАЛ.
Семпл: https://yadi.sk/i/oAAjhcKl7g82FA
Качество: WEBRip
Формат: AVI
Видео: XviD, 949 Кбит/с, 720х400, 1,85:1, 25,000 кадров/сек
Аудио: MP3, 2 ch, 192 Кбит/с, 44,1 КГц
Субтитры: отсутствуют

Подробные технические данные

Формат : AVI
Формат/Информация : Audio Video Interleave
Размер файла : 77,1 Мбайт
Продолжительность : 9 м. 20 с.
Общий поток : 1154 Кбит/сек
Программа кодирования : MEncoder SVN-r30881(20100311-gcc4.3.3)
Библиотека кодирования : MPlayer
Видео
Идентификатор : 0
Формат : MPEG-4 Visual
Профиль формата : Advanced Simple@L5
Настройки формата : BVOP2
Параметр BVOP формата : 2
Параметр QPel формата : Нет
Параметр GMC формата : Без точки перехода
Параметр матрицы формата : Default (H.263)
Идентификатор кодека : XVID
Идентификатор кодека/Подсказка : XviD
Продолжительность : 9 м. 20 с.
Битрейт : 949 Кбит/сек
Ширина : 720 пикселей
Высота : 400 пикселей
Соотношение сторон : 1,85:1
Соотношение сторон в оригинале : 16:9
Частота кадров : 25,000 кадров/сек
Цветовое пространство : YUV
Субдискретизация насыщенности : 4:2:0
Битовая глубина : 8 бит
Тип развёртки : Прогрессивная
Метод сжатия : С потерями
Бит/(Пиксели*Кадры) : 0.132
Размер потока : 63,4 Мбайт (82%)
Библиотека кодирования : XviD 1.2.1 (UTC 2008-12-04)
Аудио
Идентификатор : 1
Формат : MPEG Audio
Версия формата : Version 1
Профиль формата : Layer 3
Настройки формата : Joint stereo / MS Stereo
Идентификатор кодека : 55
Идентификатор кодека/Подсказка : MP3
Продолжительность : 9 м. 20 с.
Вид битрейта : Постоянный
Битрейт : 192 Кбит/сек
Каналы : 2 канала
Частота : 44,1 КГц
Метод сжатия : С потерями
Задержка видео : 40 мс.
Размер потока : 12,8 Мбайт (17%)
Выравнивание : Соединение по промежуткам
Продолжительность промежутка : 26 мс. (0,65 видеокадр)
Время предзагрузки промежутка : 522 мс.
Библиотека кодирования : LAME3.98

Скриншоты


-
Сообщения из этой темы [6 шт.] были выделены в отдельную тему Слушая Бетховена и размышляя о жизни в России
xfiles
[cybertorrent.ru].t172.torrent 
Торрент: Зарегистрирован [ 2019-03-18 10:04 ] · A23FB5F9A2ED4C0362EFFD622ACFC8A749A755D5

Скачать .torrent

Скачать

13 KB

Статус: проверено
Скачан: 0 раз
Размер: 77 MB
terms.php
[Профиль] [ЛС]
Показать сообщения:    
Ответить на тему

Текущее время: 25-Май 14:57

Часовой пояс: UTC ± 0



Вы не можете начинать темы
Вы не можете отвечать на сообщения
Вы не можете редактировать свои сообщения
Вы не можете удалять свои сообщения
Вы не можете голосовать в опросах
Вы не можете прикреплять файлы к сообщениям
Вы можете скачивать файлы