Чем мы заняты в тени / Что мы делаем в темноте / What We Do in the Shadows / Сезон: 1 / Серии: 1 из 10 (Тайка Вайтити / Taika Waititi) [2019, США, комедия, WEB-DLRip-AVC] MVO (Ozz) + Original Eng + Sub (Rus, Eng)

Ответить на тему
Статистика раздачи
Размер:  427 MB   |    Зарегистрирован:  18 дней   |    Скачан:  0 раз

Полного источника не было: Никогда

   
 
Автор Сообщение

Рамфоринх ®

Пол: Не указан

Стаж: 1 месяц 9 дней

Сообщений: 167

Создавать темы 03-Апр-2019 17:08

[Цитировать]

Что мы делаем в темноте - Первый сезонWhat We Do in the Shadows - First Season- Год выхода: 2019
Страна: США
Жанр: комедия
Продолжительность: 00:30:00
Перевод: Профессиональный (многоголосый закадровый) Ozz-Режиссер: Тайка Вайтити / Taika Waititi
В ролях: Кайван Новак, Харви Гильен, Наташа Деметриу, Мэтт Берри, Марк Прокш, Вероника Словиковска, Крис Перфетти, Кара Мартин, Александра Хенриксон, Шивон Фэллон и др.-Описание: Три главных героя делят дом, решают бытовые конфликты, ищут любовь — и свежую кровь, без которой им, вампирам, не прожить.- --Все раздачи сериала | Sample- & Роли озвучивают: Иван Кузнецов, Ирина Воронова, Алексей Никитин и Алексей Серегин
Автор перевода: Александр Шумилов-Качество: WEB-DLRip-AVC
Формат: MKV
Видео: AVC, 960x540 (16:9), 23.976 fps, ~1677 kbps avg, 0.135 bit/pixel
Аудио #1: Russian 48 kHz, AC3 , 2 channels, 192 kbps |Ozz|
Аудио #2: English 48 kHz, AC3 , 2 channels, 192 kbps |Eng|
Субтитры: русские (А. Шумилов), английские (SDH) [srt]
Реклама: отсутствует
-Присутствует ненормативная лексика!

MediaInfo

Код:General
Unique ID : 308390985763625453021224652505659826891 (0xE801F183105BBD47D0319C9CF31562CB)
Complete name : C:\Сериалы\What.We.Do.in.the.Shadows.S01.540p.WEBRip.DD2.0.x264-CasStudio\What.We.Do.in.the.Shadows.S01E01.Pilot.540p.WEBRip.DD2.0.x264-CasStudio.mkv
Format : Matroska
Format version : Version 4
File size : 427 MiB
Duration : 28 min 59 s
Overall bit rate : 2 060 kb/s
Movie name : Что мы делаем в темноте | What We Do in the Shadows (S01E01)
Encoded date : UTC 2019-04-01 16:50:08
Writing application : mkvmerge v31.0.0 ('Dolores In A Shoestand') 64-bit
Writing library : libebml v1.3.6 + libmatroska v1.4.9
Video
ID : 1
Format : AVC
Format/Info : Advanced Video Codec
Format profile : High@L4.1
Format settings : CABAC / 16 Ref Frames
Format settings, CABAC : Yes
Format settings, ReFrames : 16 frames
Codec ID : V_MPEG4/ISO/AVC
Duration : 28 min 59 s
Bit rate : 1 677 kb/s
Width : 960 pixels
Height : 540 pixels
Display aspect ratio : 16:9
Frame rate mode : Constant
Frame rate : 23.976 (24000/1001) FPS
Color space : YUV
Chroma subsampling : 4:2:0
Bit depth : 8 bits
Scan type : Progressive
Bits/(Pixel*Frame) : 0.135
Stream size : 348 MiB (81%)
Writing library : x264 core 157 r2932 303c484
Encoding settings : cabac=1 / ref=16 / deblock=1:-3:-3 / analyse=0x3:0x133 / me=umh / subme=10 / psy=1 / psy_rd=1.00:0.00 / mixed_ref=0 / me_range=32 / chroma_me=1 / trellis=2 / 8x8dct=1 / cqm=0 / deadzone=21,11 / fast_pskip=1 / chroma_qp_offset=-2 / threads=12 / lookahead_threads=3 / sliced_threads=0 / nr=0 / decimate=1 / interlaced=0 / bluray_compat=0 / constrained_intra=0 / bframes=15 / b_pyramid=2 / b_adapt=2 / b_bias=0 / direct=1 / weightb=1 / open_gop=0 / weightp=2 / keyint=250 / keyint_min=23 / scenecut=40 / intra_refresh=0 / rc=crf / mbtree=0 / crf=20.0 / qcomp=0.60 / qpmin=0 / qpmax=69 / qpstep=4 / ip_ratio=1.40 / pb_ratio=1.30 / aq=3:0.80
Language : English
Default : Yes
Forced : No
Color range : Limited
Color primaries : BT.709
Transfer characteristics : BT.709
Matrix coefficients : BT.709
Audio #1
ID : 2
Format : AC-3
Format/Info : Audio Coding 3
Commercial name : Dolby Digital
Codec ID : A_AC3
Duration : 28 min 31 s
Bit rate mode : Constant
Bit rate : 192 kb/s
Channel(s) : 2 channels
Channel layout : L R
Sampling rate : 48.0 kHz
Frame rate : 31.250 FPS (1536 SPF)
Bit depth : 16 bits
Compression mode : Lossy
Stream size : 39.2 MiB (9%)
Title : MVO (Ozz)
Language : Russian
Service kind : Complete Main
Default : Yes
Forced : No
Audio #2
ID : 3
Format : AC-3
Format/Info : Audio Coding 3
Commercial name : Dolby Digital
Codec ID : A_AC3
Duration : 28 min 55 s
Bit rate mode : Constant
Bit rate : 192 kb/s
Channel(s) : 2 channels
Channel layout : L R
Sampling rate : 48.0 kHz
Frame rate : 31.250 FPS (1536 SPF)
Bit depth : 16 bits
Compression mode : Lossy
Stream size : 39.7 MiB (9%)
Title : Original
Language : English
Service kind : Complete Main
Default : No
Forced : No
Text #1
ID : 4
Format : UTF-8
Codec ID : S_TEXT/UTF8
Codec ID/Info : UTF-8 Plain Text
Duration : 28 min 1 s
Bit rate : 116 b/s
Count of elements : 572
Stream size : 23.9 KiB (0%)
Title : А. Шумилов
Language : Russian
Default : No
Forced : No
Text #2
ID : 5
Format : UTF-8
Codec ID : S_TEXT/UTF8
Codec ID/Info : UTF-8 Plain Text
Duration : 28 min 58 s
Bit rate : 93 b/s
Count of elements : 696
Stream size : 19.8 KiB (0%)
Title : Original (SDH)
Language : English
Default : No
Forced : No
-

Скриншоты

Внимание! Раздача ведётся путём добавления новых серий

Внимание! Раздача ведётся путём добавления новых серий; при каждом добавлении создаётся новый торрент. Чтобы начать докачку новой серии, пользователям необходимо сделать следующее:
(1) остановить скачивание,
(2) удалить старый торрент у себя из клиента (старые серии удалять не надо),
(3) скачать новый торрент и запустить его у себя в клиенте вместо старого, при этом указать клиенту путь в старую папку куда и должно происходить скачивание новых серий.
Ваш клиент при этом должен произвести хеширование (проверку) старой папки (если не производит сам - помогите ему сделать это), и будет докачивать только те серии которых у вас ещё нет. Старые серии при этом не удаляются, а продолжают раздаваться!
Если вы уже удалили старые серии, то предотвратить повторную закачку старых серий можно, отжав галочку в соответствующих местах при запуске нового торрента.
-

Если ваш рейтинг упадет ниже 0,3, вы не сможете скачивать торренты! Подробнее о рейтинге.

[cybertorrent.ru].t1724.torrent 
Торрент: Зарегистрирован [ 2019-04-03 17:08 ] · DA0FDCB05CA2473599756D3C90360AE8A4CF3EAD

Скачать .torrent

Скачать

17 KB

Статус: проверено
Скачан: 0 раз
Размер: 427 MB
terms.php
[Профиль] [ЛС]
Показать сообщения:    
Ответить на тему

Текущее время: 21-Апр 19:04

Часовой пояс: UTC ± 0



Вы не можете начинать темы
Вы не можете отвечать на сообщения
Вы не можете редактировать свои сообщения
Вы не можете удалять свои сообщения
Вы не можете голосовать в опросах
Вы не можете прикреплять файлы к сообщениям
Вы можете скачивать файлы