Рождественское желание Аннабэль / Аннабелль / Annabelle's Wish (Рой Уилсон / Roy Wilson) [1997, США, Мультфильм, VHSRip] MVO Формат А | ОРТ Видео

Ответить на тему
Статистика раздачи
Размер:  1,73 GB   |    Зарегистрирован:  2 месяца 29 дней   |    Скачан:  0 раз

Полного источника не было: Никогда

   
 
Автор Сообщение

karlll ®

Пол: Не указан

Стаж: 3 месяца 4 дня

Сообщений: 116

Создавать темы 18-Мар-2019 10:01

[Цитировать]

Рождественское желание Аннабэль / Аннабелль / Annabelle's Wish
Страна: США
Жанр: Мультфильм
Продолжительность: 00:52:06
Год выпуска: 1997
Перевод: Профессиональный (многоголосый закадровый) Формат А | ОРТ Видео
Русские субтитры: нет
Режиссёр: Рой Уилсон / Roy Wilson
Роли озвучивали: Ренди Тревис / Randy Travis, Джей Джонсон / Jay Johnson, Джерри Ван Дюк / Jerry Van Dyke, Джим Уорни / Jim Varney, Ру Мак Клинахан / Rue McClanahan, Глорис Личман / Cloris Leachman
Описание: Основанная на легенде, о том, что один день в канун Нового года животным дается способность говорить, эта сказка начинается, когда Аннабелль заводит дружбу с Билли, маленьким мальчиком, и обитателями фермы, на которой он живет вместе с дедушкой. Аннабелль доказывает всем, что настоящая дружба и бескорыстная любовь имеют магическую силу, которая может осуществить самую заветную мечту.
Доп. информация: Оцифровка лицензионной VHS (личный архив) и получение VHSRip alenavova
Эксклюзив для rutracker.org. При размещении данного релиза на других сайтах ссылка на автора alenavova обязательна.
Релиз
Семпл: https://yadi.sk/i/YPfJX6VqipEBsg
Качество: VHSRip
Формат: AVI
Видео: MPEG2 Video 720x576 (4:3) 25fps 4380kbps
Аудио: MPEG Audio 48000Hz stereo 256kbps
Субтитры: отсутствуют

Подробные технические данные

Волшебное желание Анабель - Annabelle's Wish [by alenavova].mpg
Format : MPEG-PS
File size : 1.73 GiB
Duration : 52 min 5 s
Overall bit rate mode : Constant
Overall bit rate : 4 742 kb/s
Video
ID : 224 (0xE0)
Format : MPEG Video
Format version : Version 2
Format profile : Main@Main
Format settings : CustomMatrix / BVOP
Format settings, BVOP : Yes
Format settings, Matrix : Custom
Format settings, GOP : M=3, N=12
Format settings, picture st : Frame
Duration : 52 min 5 s
Bit rate mode : Constant
Bit rate : 4 380 kb/s
Width : 720 pixels
Height : 576 pixels
Display aspect ratio : 4:3
Frame rate : 25.000 FPS
Standard : PAL
Color space : YUV
Chroma subsampling : 4:2:0
Bit depth : 8 bits
Scan type : Interlaced
Scan order : Top Field First
Compression mode : Lossy
Bits/(Pixel*Frame) : 0.422
Time code of first frame : 00:00:00:00
Time code source : Group of pictures header
GOP, Open/Closed : Open
GOP, Open/Closed of first f : Closed
Stream size : 1.60 GiB (93%)
Audio
ID : 192 (0xC0)
Format : MPEG Audio
Format version : Version 1
Format profile : Layer 2
Duration : 52 min 5 s
Bit rate mode : Constant
Bit rate : 256 kb/s
Channel(s) : 2 channels
Sampling rate : 48.0 kHz
Frame rate : 41.667 FPS (1152 SPF)
Compression mode : Lossy
Stream size : 95.4 MiB (5%)
Menu

Скриншоты


[cybertorrent.ru].t173.torrent 
Торрент: Зарегистрирован [ 2019-03-18 10:04 ] · ECDD33E93FB4A8EA3EE39522E4EBC22190EDEB3A

Скачать .torrent

Скачать

18 KB

Статус: проверено
Скачан: 0 раз
Размер: 1,73 GB
terms.php
[Профиль] [ЛС]
Показать сообщения:    
Ответить на тему

Текущее время: 16-Июн 18:32

Часовой пояс: UTC ± 0



Вы не можете начинать темы
Вы не можете отвечать на сообщения
Вы не можете редактировать свои сообщения
Вы не можете удалять свои сообщения
Вы не можете голосовать в опросах
Вы не можете прикреплять файлы к сообщениям
Вы можете скачивать файлы