Поток / Slipstream (Стивен Лисбергер / Steven Lisberger) [1989, Великобритания, Фантастика, Приключения, DVDRip-AVC] AVO (Юрий Сербин) + Original Eng

Ответить на тему
Статистика раздачи
Размер:  2,19 GB   |    Зарегистрирован:  4 месяца 19 дней   |    Скачан:  0 раз

Полного источника не было: Никогда

   
 
Автор Сообщение

serzh ®

Пол: Не указан

Стаж: 5 месяцев 12 дней

Сообщений: 361

Создавать темы 04-Апр-2019 15:32

[Цитировать]

Поток / Slipstream
Страна: Великобритания
Жанр: Фантастика, Приключения
Год выпуска: 1989
Продолжительность: 01:34:45
Перевод: Авторский (одноголосый закадровый) Юрий Сербин
Субтитры: нет
Оригинальная аудиодорожка: английский
Режиссер: Стивен Лисбергер / Steven Lisberger
В ролях: Марк Хэмилл, Боб Пек, Билл Пэкстон, Китти Олдридж, Элеанор Дэвид, Бен Кингсли
Описание: В недалёком будущем представитель закона (Марк Хэмилл) и его напарница (Китти Олдридж) задерживают беглеца (Боба Пека), разыскиваемого за убийство. Один проходимец (Билл Пэкстон) узнает, что за голову пленника объявлена награда и похищает его. Пытаясь уйти от от преследователей, они входят в Поток (шквальный ветер, который после всемирной катастрофы и природных катаклизмов проносится по Земле). В пути их ждёт много непредсказуемых встреч и опасных приключений. Выясняется, что беглец - андроид, который пытается понять, каково это - быть человеком. По ходу событий Пэкстон и андроид становятся друзьями, но тут их настигают преследователи...
Доп. информация: x264 DVDRip на базе DVD9 релиза от rjhlb777 (спасибо!). Синхронизация звук. дорожек: Нордер (спасибо!).
Релиз находиться на сидбоксе. Трекер иногда пишет что я не онлайн, хотя это не так (ports открыты). Качайте на здоровье!
Сэмпл: http://multi-up.com/1228470
Качество видео: DVDRip-AVC
Формат видео: MKV
Видео: 720x570 (5:4), 25 FPS, AVC, x264 core 157, ~2,923 kbps, 8 bit, 0.285 bit/pixel
Аудио: Russian, 48.0 KHz, AC3, 2 ch, 192 Kbps
Аудио 2: Original English, 48.0 KHz, AC3, 2 ch, 192 Kbps

MediaInfo

General
Unique ID : 325555074731942024210140223295809992092 (0xF4EBA06F3CC2816C2282AA49CD05359C)
Complete name : D:\Slipstream.1989.DVDRip.x264-TMNEMONIC-RT.mkv
Format : Matroska
Format version : Version 4
File size : 2.19 GiB
Duration : 1 h 34 min
Overall bit rate : 3 309 kb/s
Movie name : Slipstream (1989)
Encoded date : UTC 2019-04-04 00:16:17
Writing application : mkvmerge v32.0.0 ('Astral Progressions') 64-bit
Writing library : libebml v1.3.7 + libmatroska v1.5.0
Video
ID : 1
Format : AVC
Format/Info : Advanced Video Codec
Format profile : High@L3.1
Format settings : CABAC / 11 Ref Frames
Format settings, CABAC : Yes
Format settings, RefFrames : 11 frames
Codec ID : V_MPEG4/ISO/AVC
Duration : 1 h 34 min
Bit rate : 2 923 kb/s
Width : 720 pixels
Height : 570 pixels
Display aspect ratio : 5:4
Frame rate mode : Constant
Frame rate : 25.000 FPS
Color space : YUV
Chroma subsampling : 4:2:0
Bit depth : 8 bits
Scan type : Progressive
Bits/(Pixel*Frame) : 0.285
Stream size : 1.93 GiB (88%)
Title : [x264][TMNEMONIC]
Writing library : x264 core 157 r2935 545de2f
Encoding settings : cabac=1 / ref=11 / deblock=1:0:0 / analyse=0x3:0x133 / me=umh / subme=10 / psy=1 / psy_rd=1.00:0.00 / mixed_ref=1 / me_range=24 / chroma_me=1 / trellis=2 / 8x8dct=1 / cqm=0 / deadzone=21,11 / fast_pskip=1 / chroma_qp_offset=-2 / threads=18 / lookahead_threads=3 / sliced_threads=0 / nr=0 / decimate=1 / interlaced=0 / bluray_compat=0 / constrained_intra=0 / bframes=8 / b_pyramid=2 / b_adapt=2 / b_bias=0 / direct=3 / weightb=1 / open_gop=0 / weightp=2 / keyint=250 / keyint_min=25 / scenecut=40 / intra_refresh=0 / rc_lookahead=60 / rc=crf / mbtree=1 / crf=16.0 / qcomp=0.60 / qpmin=0 / qpmax=69 / qpstep=4 / vbv_maxrate=17500 / vbv_bufsize=17500 / crf_max=0.0 / nal_hrd=none / filler=0 / ip_ratio=1.40 / aq=1:1.00
Default : Yes
Forced : No
Color range : Limited
Color primaries : BT.601 PAL
Transfer characteristics : BT.709
Matrix coefficients : BT.601
Audio #1
ID : 2
Format : AC-3
Format/Info : Audio Coding 3
Commercial name : Dolby Digital
Codec ID : A_AC3
Duration : 1 h 34 min
Bit rate mode : Constant
Bit rate : 192 kb/s
Channel(s) : 2 channels
Channel layout : L R
Sampling rate : 48.0 kHz
Frame rate : 31.250 FPS (1536 SPF)
Bit depth : 16 bits
Compression mode : Lossy
Stream size : 130 MiB (6%)
Title : [2.0][Юрий Сербин]
Language : Russian
Service kind : Complete Main
Default : Yes
Forced : No
Audio #2
ID : 3
Format : AC-3
Format/Info : Audio Coding 3
Commercial name : Dolby Digital
Codec ID : A_AC3
Duration : 1 h 34 min
Bit rate mode : Constant
Bit rate : 192 kb/s
Channel(s) : 2 channels
Channel layout : L R
Sampling rate : 48.0 kHz
Frame rate : 31.250 FPS (1536 SPF)
Bit depth : 16 bits
Compression mode : Lossy
Stream size : 130 MiB (6%)
Title : [2.0]
Language : English
Service kind : Complete Main
Default : No
Forced : No
Menu
00:00:00.000 : :Chapter 1
00:15:59.920 : :Chapter 2
00:31:59.920 : :Chapter 3
00:47:59.920 : :Chapter 4
01:03:59.920 : :Chapter 5
01:19:59.920 : :Chapter 6

Скриншот c названием фильма

Скриншоты

Если ваш рейтинг упадет ниже 0,3, вы не сможете скачивать торренты! Подробнее о рейтинге.

[cybertorrent.ru].t1751.torrent 
Торрент: Зарегистрирован [ 2019-04-04 15:32 ] · D0C9C6B3DBB44FA8A883CC9DBF8FD870F14CE76B

Скачать .torrent

Скачать

88 KB

Статус: проверено
Скачан: 0 раз
Размер: 2,19 GB
terms.php
[Профиль] [ЛС]
Показать сообщения:    
Ответить на тему

Текущее время: 24-Авг 15:25

Часовой пояс: UTC ± 0



Вы не можете начинать темы
Вы не можете отвечать на сообщения
Вы не можете редактировать свои сообщения
Вы не можете удалять свои сообщения
Вы не можете голосовать в опросах
Вы не можете прикреплять файлы к сообщениям
Вы можете скачивать файлы