В пустыне смерти / Into the Badlands / Сезон: 3 / Серии: 1-10 из 16 (Дэвид Добкин) [2018, США, Боевик, драма, приключения, WEB-DLRip] MVO (NewStudio) + Original + sub (Rus)

Ответить на тему
Статистика раздачи
Размер:  5,03 GB   |    Зарегистрирован:  4 месяца 13 дней   |    Скачан:  0 раз

Полного источника не было: Никогда

   
 
Автор Сообщение

Рамфоринх ®

Пол: Не указан

Стаж: 5 месяцев 6 дней

Сообщений: 351

Создавать темы 05-Апр-2019 15:58

[Цитировать]

В пустыне смерти / Into the Badlands- Год выпуска: 2018
Страна: США
Жанр: Боевик, драма, приключения
Продолжительность: ~ 00:43:00-Перевод: Профессиональный (многоголосый закадровый) NewStudio-Режиссёр: Дэвид Добкин-В ролях: Эмили Бичем, Сара Болгер, Орла Брэйди, Мартон Чокаш, Элли Иоаннидес, Арамис Найт, Мадлен Манток, Майкл Сил, Оливер Старк, Дэниэл Ву-Описание: Третий сезон популярного экшен-боевика "В пустыне смерти" продолжит историю о двух друзьях, которые отправились в невероятно опасное путешествие. Санни - великолепный боец, который в совершенстве владеет рядом боевых искусств. Его напарник сопровождает главного героя в неизведанных землях, где на пути встречаются только негодяи и проходимцы. Приключение для главных героев станет не только испытанием силы, но и духа. Санни проверит себя в деле, используя выдающиеся боевые навыки, а его друг постарается научиться контролировать и тело, и разум, найдя гармонию внутри себя. Сюжет сериала основан на известном китайском произведении, одном из самых популярных романов своего времени "Путешествие на Запад".- -
Качество: WEB-DLRip
Формат: AVI
Видео: XviD, 720x400 (16:9), 23,976 fps, ~1396 kbps
Аудио #1: MP3, 48 kHz, 2 ch, 128 kbps | RUS | NewStudio
Аудио #2: MP3, 48 kHz, 2 ch, 128 kbps | ENG | Original
Субтитры: Русские (SRT)
Реклама: Отсутствует-[box=#FFFFFF,#000000]Ссылка на предыдущие и альтернативные раздачи[/box]

Список серий

3x01 Enter the Phoenix
3x02 Moon Rises, Raven Seeks
3x03 Leopard Snares Rabbit
3x04 Blind Cannibal Assassins
3x05 Carry Tiger to Mountain
3x06 Black Wind Howls
3x07 Dragonfly's Last Dance
3x08 Leopard Catches Cloud

MediaInfo

Общее
Полное имя : D:\Distributions\Into the Badlands\Into.the.Badlands.s03e01.WEBDLRip.NewStudioi.avi
Формат : AVI
Формат/Информация : Audio Video Interleave
Размер файла : 507 Мбайт
Продолжительность : 42 м. 33 с.
Общий поток : 1666 Кбит/сек
Название фильма : Into.the.Badlands.s03e01.WEBDLRip.NewStudio [rutracker]
Программа кодирования : VirtualDubModRus 1.5.10.2 (build 2542/release)
Библиотека кодирования : VirtualDubMod build 2542/release
Видео
Идентификатор : 0
Формат : MPEG-4 Visual
Профиль формата : Advanced Simple@L5
Настройки формата : BVOP2
Параметр BVOP формата : 2
Параметр QPel формата : Нет
Параметр GMC формата : Без точки перехода
Параметр матрицы формата : Default (H.263)
Идентификатор кодека : XVID
Идентификатор кодека/Подсказка : XviD
Продолжительность : 42 м. 33 с.
Битрейт : 1396 Кбит/сек
Ширина : 720 пикселей
Высота : 400 пикселей
Соотношение сторон : 16:9
Частота кадров : 23,976 (24000/1001) кадра/сек
Цветовое пространство : YUV
Субдискретизация насыщенности : 4:2:0
Битовая глубина : 8 бит
Тип развёртки : Прогрессивная
Метод сжатия : С потерями
Бит/(Пиксели*Кадры) : 0.202
Размер потока : 425 Мбайт (84%)
Заголовок : _jolly_ [rutracker]
Библиотека кодирования : XviD 67
Аудио #1
Идентификатор : 1
Формат : MPEG Audio
Версия формата : Version 1
Профиль формата : Layer 3
Настройки формата : Joint stereo / MS Stereo
Идентификатор кодека : 55
Идентификатор кодека/Подсказка : MP3
Продолжительность : 42 м. 33 с.
Вид битрейта : Постоянный
Битрейт : 128 Кбит/сек
Каналы : 2 канала
Частота : 48,0 КГц
Метод сжатия : С потерями
Размер потока : 39,0 Мбайт (8%)
Выравнивание : Разделение по промежуткам
Продолжительность промежутка : 42 мс. (1,00 видеокадр)
Время предзагрузки промежутка : 500 мс.
Аудио #2
Идентификатор : 2
Формат : MPEG Audio
Версия формата : Version 1
Профиль формата : Layer 3
Настройки формата : Joint stereo / MS Stereo
Идентификатор кодека : 55
Идентификатор кодека/Подсказка : MP3
Продолжительность : 42 м. 33 с.
Вид битрейта : Постоянный
Битрейт : 128 Кбит/сек
Каналы : 2 канала
Частота : 48,0 КГц
Метод сжатия : С потерями
Размер потока : 39,0 Мбайт (8%)
Выравнивание : Разделение по промежуткам
Продолжительность промежутка : 42 мс. (1,00 видеокадр)
Время предзагрузки промежутка : 500 мс.

Скриншоты

Раздача ведётся путём добавления новых серий

Когда раздача ведётся путём добавления новых серий, при каждом добавлении создётся новый торрент. Чтобы начать докачку новой серии, пользователям необходимо сделать следующее:
(1) остановить скачивание,
(2) удалить старый торрент у себя из клиента (старые серии удалять не надо),
(3) скачать новый торрент и запустить его у себя в клиенте вместо старого, при этом указать клиенту путь в старую папку, куда и должно происходить скачивание новых серий.
Ваш клиент при этом должен произвести хеширование (проверку) старой папки (если не производит сам - помогите ему сделать это), и будет докачивать только те серии, которых у вас ещё нет. Старые серии при этом не удаляются, а продолжают раздаваться!
Eсли вы уже удалили старые серии, то предотвратить повторную закачку старых серий можно, отжав галочку в соответсвующих местах при запуске нового торрента. По возможности, желательно не удалять старые серии как можно дольше, чтобы релизёр не столько продолжал раздавать старые серии, а смог сконцентрироваться на новых.
[cybertorrent.ru].t1762.torrent 
Торрент: Зарегистрирован [ 2019-04-05 15:58 ] · A8C9F7DB914F55484F64996A20F2DE65C34DC0C6

Скачать .torrent

Скачать

15 KB

Статус: проверено
Скачан: 0 раз
Размер: 5,03 GB
terms.php
[Профиль] [ЛС]
Показать сообщения:    
Ответить на тему

Текущее время: 19-Авг 06:15

Часовой пояс: UTC ± 0



Вы не можете начинать темы
Вы не можете отвечать на сообщения
Вы не можете редактировать свои сообщения
Вы не можете удалять свои сообщения
Вы не можете голосовать в опросах
Вы не можете прикреплять файлы к сообщениям
Вы можете скачивать файлы