Т-34 (Алексей Сидоров) [2018, драма, военный, приключения, BDRip-AVC]

Ответить на тему
Статистика раздачи
Размер:  1,46 GB   |    Зарегистрирован:  4 месяца 13 дней   |    Скачан:  0 раз

Полного источника не было: Никогда

   
 
Автор Сообщение

Rodin ®

Пол: Не указан

Стаж: 5 месяцев 6 дней

Сообщений: 226

Создавать темы 05-Апр-2019 15:58

[Цитировать]

Т-34- Год выхода: 2018
Страна: Россия
Производство: АМЕДИА, Марс Медиа Энтертейнмент
Жанр: драма, военный, приключения
Продолжительность: 02:19:08
Субтитры: Русские (полные)
Навигация по главам: Есть (11 глав)-Режиссер:
Алексей Сидоров-В ролях:
Александр Петров (Николай Ивушкин), Виктор Добронравов (Василенок), Ирина Старшенбаум (Аня), Винценц Кифер (Клаус), Петр Скворцов (Лыков), Семен Трескунов (Тетеря), Антон Богданов (Волчок), Василий Буткевич (ординарец Корина), Ярослав Штефан (Макеев, пулеметчик)-О фильме:
Во времена величайших испытаний человечества, когда от каждого действия зависят жизни любимых, два заклятых врага начнут свое противостояние.
Оказавшись в плену, вчерашний курсант Ивушкин планирует дерзкий побег. Он собирает свой экипаж и на легендарной «тридцатьчетверке» бросает вызов немецким танковым асам во главе с Ягером. Ради своей любви и Родины он готов идти до конца.-Релиз групп | | КиноПоиск | Сэмпл |-Качество: BDRip-AVC [Blu-ray Disc]
Формат: MKV
Видео: 992x416 (2,40:1), 24,000 fps, x264 ~1310 kbps avg, 0.132 bit/pixel
Аудио: 48 kHz, AC3 Dolby Digital, 2/0 (L,R) ch, ~192 kbps avg
Формат субтитров: Softsub (.srt*)-

Скриншоты

-

MediaInfo

Код:Полное имя : G:\T-34_2018_BDRip-AVC_by_Dalemake.mkv
Формат : Matroska
Версия формата : Version 4 / Version 2
Размер файла : 1,46 Гбайт
Продолжительность : 2 ч. 19 м.
Общий поток : 1503 Кбит/сек
Название фильма : [T-34_2018_All Films_Rutracker.org_by Dalemake]
Дата кодирования : UTC 2019-04-04 10:37:35
Программа кодирования : mkvmerge v6.1.0 ('Old Devil') built on Mar 4 2013 09:10:42
Библиотека кодирования : libebml v1.3.0 + libmatroska v1.4.0
Видео
Идентификатор : 1
Формат : AVC
Формат/Информация : Advanced Video Codec
Профиль формата : High@L4.1
Параметр CABAC формата : Да
Параметр ReFrames формата : 9 кадров
Идентификатор кодека : V_MPEG4/ISO/AVC
Продолжительность : 2 ч. 19 м.
Битрейт : 1310 Кбит/сек
Ширина : 992 пикселя
Высота : 416 пикселей
Соотношение сторон : 2,40:1
Режим частоты кадров : Постоянный
Частота кадров : 24,000 кадра/сек
Цветовое пространство : YUV
Субдискретизация насыщенности : 4:2:0
Битовая глубина : 8 бит
Тип развёртки : Прогрессивная
Бит/(Пиксели*Кадры) : 0.132
Размер потока : 1,25 Гбайт (85%)
Заголовок : [T-34_2018_All Films_Rutracker.org_by Dalemake]
Библиотека кодирования : x264 core 157 r2935 545de2f
Настройки программы : cabac=1 / ref=9 / deblock=1:-2:-2 / analyse=0x3:0x133 / me=umh / subme=10 / psy=1 / psy_rd=1.00:0.00 / mixed_ref=1 / me_range=24 / chroma_me=1 / trellis=2 / 8x8dct=1 / cqm=0 / deadzone=21,11 / fast_pskip=1 / chroma_qp_offset=-4 / threads=6 / lookahead_threads=1 / sliced_threads=0 / nr=0 / decimate=0 / interlaced=0 / bluray_compat=0 / constrained_intra=0 / bframes=10 / b_pyramid=2 / b_adapt=2 / b_bias=0 / direct=3 / weightb=1 / open_gop=0 / weightp=2 / keyint=240 / keyint_min=23 / scenecut=40 / intra_refresh=0 / rc_lookahead=60 / rc=2pass / mbtree=0 / bitrate=1310 / ratetol=1.0 / qcomp=0.60 / qpmin=0 / qpmax=69 / qpstep=4 / cplxblur=20.0 / qblur=0.5 / vbv_maxrate=50000 / vbv_bufsize=62500 / nal_hrd=none / filler=0 / ip_ratio=1.40 / pb_ratio=1.35 / aq=1:1.00
Язык : Russian
Default : Да
Forced : Нет
Аудио
Идентификатор : 2
Формат : AC-3
Формат/Информация : Audio Coding 3
Расширение режима : CM (complete main)
Параметр Endianness формата : Big
Идентификатор кодека : A_AC3
Продолжительность : 2 ч. 19 м.
Вид битрейта : Постоянный
Битрейт : 192 Кбит/сек
Каналы : 2 канала
Расположение каналов : Front: L R
Частота : 48,0 КГц
Метод сжатия : С потерями
Размер потока : 191 Мбайт (13%)
Заголовок : BD RUS
Язык : Russian
Default : Да
Forced : Нет
Текст
Идентификатор : 3
Формат : UTF-8
Идентификатор кодека : S_TEXT/UTF8
Идентификатор кодека/Информация : UTF-8 Plain Text
Заголовок : Full
Язык : Russian
Default : Нет
Forced : Нет
Меню
00:00:00.000 : ru:Chapter 01
00:01:17.875 : ru:Chapter 02
00:12:31.250 : ru:Chapter 03
00:24:54.041 : ru:Chapter 04
00:35:06.916 : ru:Chapter 05
00:49:36.291 : ru:Chapter 06
01:03:21.041 : ru:Chapter 07
01:17:58.583 : ru:Chapter 08
01:30:55.458 : ru:Chapter 09
01:46:42.666 : ru:Chapter 10
02:03:33.916 : ru:Chapter 11
-
[cybertorrent.ru].t1767.torrent 
Торрент: Зарегистрирован [ 2019-04-05 15:58 ] · F7B9D3E0B6EC068C6180F57ED9D3821D41C01D16

Скачать .torrent

Скачать

15 KB

Статус: проверено
Скачан: 0 раз
Размер: 1,46 GB
terms.php
[Профиль] [ЛС]
Показать сообщения:    
Ответить на тему

Текущее время: 19-Авг 05:56

Часовой пояс: UTC ± 0



Вы не можете начинать темы
Вы не можете отвечать на сообщения
Вы не можете редактировать свои сообщения
Вы не можете удалять свои сообщения
Вы не можете голосовать в опросах
Вы не можете прикреплять файлы к сообщениям
Вы можете скачивать файлы