Дети, солнышко и снег (Виктория Барбэ) [1981, СССР, мультфильм, сказка, WEBRip / Telesync]

Ответить на тему
Статистика раздачи
Размер:  128 MB   |    Зарегистрирован:  3 месяца 7 дней   |    Скачан:  0 раз

Полного источника не было: Никогда

   
 
Автор Сообщение

xelon ®

Пол: Не указан

Стаж: 3 месяца 13 дней

Сообщений: 78

Создавать темы 18-Мар-2019 10:01

[Цитировать]

Дети, солнышко и снег
Страна: СССР (Молдавская республика)
Жанр: мультфильм, сказка
Продолжительность: 00:10:20
Год выпуска: 1981
Русские субтитры: нет
Режиссёр: Виктория Барбэ
Описание: Морозик готовит детям подарки на Новый Год. Но ребята из Молдавии просят его привезти им снег. А это оказывается непросто: из-за местного солнца снег там сразу тает...
Качество: WEBRip (Telesync)
Формат: AVI
Видео: 1595 kbps, 608х448 (4:3), 25.000 fps, MPEG-4 Visual (XviD)
Аудио: 128 kbps, 44.1 kHz, 2 channels, MPEG Audio (MP3)
Субтитры: отсутствуют

Подробные технические данные

General
Complete name : Дети, солнышко и снег (1981).avi
Format : AVI
Format/Info : Audio Video Interleave
File size : 128 MiB
Duration : 10mn 20s
Overall bit rate : 1 734 Kbps
Writing application : Lavf55.19.104
Writing library : VirtualDub build 35491/release
Video
ID : 0
Format : MPEG-4 Visual
Format profile : Advanced Simple@L4
Format settings, BVOP : 2
Format settings, QPel : No
Format settings, GMC : No warppoints
Format settings, Matrix : Default (H.263)
Codec ID : XVID
Codec ID/Hint : XviD
Duration : 10mn 20s
Bit rate : 1 595 Kbps
Width : 608 pixels
Height : 448 pixels
Display aspect ratio : 4:3
Frame rate : 25.000 fps
Color space : YUV
Chroma subsampling : 4:2:0
Bit depth : 8 bits
Scan type : Progressive
Compression mode : Lossy
Bits/(Pixel*Frame) : 0.234
Stream size : 118 MiB (92%)
Writing library : XviD 73
Audio
ID : 1
Format : MPEG Audio
Format version : Version 1
Format profile : Layer 3
Mode : Joint stereo
Mode extension : MS Stereo
Codec ID : 55
Codec ID/Hint : MP3
Duration : 10mn 15s
Bit rate mode : Constant
Bit rate : 128 Kbps
Channel(s) : 2 channels
Sampling rate : 44.1 KHz
Compression mode : Lossy
Stream size : 9.39 MiB (7%)
Alignment : Aligned on interleaves
Interleave, duration : 26 ms (0.66 video frame)
Interleave, preload duration : 522 ms
Writing library : LAME3.99.5

Скриншоты

[cybertorrent.ru].t178.torrent 
Торрент: Зарегистрирован [ 2019-03-18 10:04 ] · 765847E235B828B009A68B0604093BBD419BFC67

Скачать .torrent

Скачать

11 KB

Статус: проверено
Скачан: 0 раз
Размер: 128 MB
terms.php
[Профиль] [ЛС]
Показать сообщения:    
Ответить на тему

Текущее время: 25-Июн 22:08

Часовой пояс: UTC ± 0



Вы не можете начинать темы
Вы не можете отвечать на сообщения
Вы не можете редактировать свои сообщения
Вы не можете удалять свои сообщения
Вы не можете голосовать в опросах
Вы не можете прикреплять файлы к сообщениям
Вы можете скачивать файлы