Закатать в асфальт / Dragged Across Concrete (С. Крэйг Залер / S. Craig Zahler) [2018, США, боевик, триллер, драма, криминал, WEB-DLRip] Original (Eng) + Sub (Rus, Eng)

Ответить на тему
Статистика раздачи
Размер:  1,46 GB   |    Зарегистрирован:  4 месяца 12 дней   |    Скачан:  0 раз
Сидов:  65  [  0 KB/s  ]   Личеров:  1  [  0 KB/s  ]  
   
 
Автор Сообщение

солнышко ®

Пол: Не указан

Стаж: 5 месяцев 6 дней

Сообщений: 526

Создавать темы 05-Апр-2019 15:58

[Цитировать]

Закатать в асфальт / Dragged Across Concrete
«Эти жёсткие мужские игры»
- Год выхода: 2018
Страна: Канада, США
Жанр: боевик, триллер, драма, криминал
Продолжительность: 02:38:30
Перевод: СУБТИТРЫ - Ненормативная лексика
Субтитры: Русские (полные - FOCS), Английские (полные) (внешние *.srt)
Оригинальная аудиодорожка: Английская-Режиссер:
С. Крэйг Залер / S. Craig Zahler-В ролях:
Мэл Гибсон, Винс Вон, Дженнифер Карпентер, Майкл Джей Уайт, Лори Холден, Дон Джонсон, Томас Кречманн, Удо Кир, Тори Киттлз, Лианнет Боррего, Джастин Уоррингтон-О фильме:
Старого ищейку Риджмана и безбашенного Энтони отстраняют от дел после того, как в сеть попадает видео, где напарники жестко выбивают признание из подозреваемого. Не имея других средств к существованию, экс-копы находят работу в криминальном подполье.-Релиз групп | | IMDB | КиноПоиск | Сэмпл |-Качество: WEB-DLRip [AMZN]
Формат: AVI
Видео: 720x304 (2.37:1), 23.976 fps, XviD build 67 ~1180 kbps avg, 0.23 bit/pixel
Аудио: 48 kHz, MPEG Layer 3, 2 ch, ~128.00 kbps avg-

Скриншоты

-

MediaInfo

Код:Полное имя : D:\Zakatat`_v_asfalt_2018_WEB-DLRip_Sub_by_Dalemake.avi
ормат : AVI
Формат/Информация : Audio Video Interleave
Размер файла : 1,46 Гбайт
Продолжительность : 2 ч. 38 м.
Общий поток : 1318 Кбит/сек
Программа кодирования : VirtualDubMod 1.5.10.3 | www.virtualdub-fr.org || (build 2550/release)
Библиотека кодирования : VirtualDubMod build 2550/release
Видео
Идентификатор : 0
Формат : MPEG-4 Visual
Профиль формата : Advanced Simple@L5
Параметр BVOP формата : 1
Параметр QPel формата : Нет
Параметр GMC формата : Без точки перехода
Параметр матрицы формата : Выборочная
Идентификатор кодека : XVID
Идентификатор кодека/Подсказка : XviD
Продолжительность : 2 ч. 38 м.
Битрейт : 1181 Кбит/сек
Ширина : 720 пикселей
Высота : 304 пикселя
Соотношение сторон : 2,35:1
Частота кадров : 23,976 кадра/сек
Цветовое пространство : YUV
Субдискретизация насыщенности : 4:2:0
Битовая глубина : 8 бит
Тип развёртки : Прогрессивная
Метод сжатия : С потерями
Бит/(Пиксели*Кадры) : 0.225
Размер потока : 1,31 Гбайт (90%)
Библиотека кодирования : XviD 67
Аудио
Идентификатор : 1
Формат : MPEG Audio
Версия формата : Version 1
Профиль формата : Layer 3
Идентификатор кодека : 55
Идентификатор кодека/Подсказка : MP3
Продолжительность : 2 ч. 38 м.
Вид битрейта : Постоянный
Битрейт : 128 Кбит/сек
Каналы : 2 канала
Частота : 48,0 КГц
Метод сжатия : С потерями
Размер потока : 145 Мбайт (10%)
Выравнивание : Соединение по промежуткам
Продолжительность промежутка : 42 мс. (1,00 видеокадр)
Время предзагрузки промежутка : 504 мс.
Библиотека кодирования : LAME3.99r
Настройки программы : -m s -V 4 -q 2 -lowpass 17 -b 128

Пример субтитров

Код:29
00:03:40,169 --> 00:03:42,070
Как только обустроюсь – дам знать.
30
00:03:43,806 --> 00:03:44,841
В любом случае…
31
00:03:45,940 --> 00:03:47,543
спасибо, что свёл меня с Ланой.
32
00:03:48,544 --> 00:03:49,612
И за то, что подбросил.
33
00:03:50,611 --> 00:03:51,646
Без проблем.
34
00:03:56,485 --> 00:03:57,386
До скорого.
35
00:04:51,073 --> 00:04:53,176
Малыш, иди к себе в комнату.
-При появлении озвучки рип будет перезалит!-
[cybertorrent.ru].t1783.torrent 
Торрент: Зарегистрирован [ 2019-04-05 15:58 ] · 0EE69CB5202E6D9A3434936A6A60D0D0E7C875EE

Скачать .torrent

Скачать

15 KB

Статус: проверено
Скачан: 0 раз
Размер: 1,46 GB
terms.php
[Профиль] [ЛС]
Показать сообщения:    
Ответить на тему

Текущее время: 18-Авг 15:01

Часовой пояс: UTC ± 0



Вы не можете начинать темы
Вы не можете отвечать на сообщения
Вы не можете редактировать свои сообщения
Вы не можете удалять свои сообщения
Вы не можете голосовать в опросах
Вы не можете прикреплять файлы к сообщениям
Вы можете скачивать файлы