Гонка / Rush (Рон Ховард / Ron Howard) [2013, Великобритания, Германия, США, биография, спорт, BDRip] AVO (Сергей Визгунов)

Ответить на тему
Статистика раздачи
Размер:  2,06 GB   |    Зарегистрирован:  16 дней   |    Скачан:  0 раз

Полного источника не было: Никогда

   
 
Автор Сообщение

cyber ®

Пол: Не указан

Стаж: 1 месяц 10 дней

Сообщений: 61

Создавать темы 05-Апр-2019 15:58

[Цитировать]

Гонка / Rush
Страна: Великобритания, Германия, США
Жанр: биография, спорт
Год выпуска: 2013
Продолжительность: 02:02:21

Перевод: Авторский (одноголосый закадровый) Сергей Визгунов
Субтитры: нет
Режиссер: Рон Ховард / Ron Howard
В ролях: Крис Хемсворт, Даниэль Брюль, Оливия Уайлд, Александра Лара, Пьерфранческо Фавино, Дэвид Колдер, Натали Дормер, Кристиан МакКэй
Описание: 70- е годы отличались поразительной популярностью гонок. Адреналин играл главенствующую роль во время езды. Для многих гонщиков жажда скорости оборачивалась высокой ценой жизни. Несмотря на опасность данного вида спорта, риск побуждает автогонщиков к соревнованиям во имя победы. В центре сюжета противостояние двух харизматичных лидеров Джеймса Ханта и Никки Лауды. Хант представляет собой азартного человека, которой руководствуется необдуманными желаниями. Его страсть к победе не несет конструктивных идей, его триумф ради поражения противника. Никки Лауда является антиподом своего главного соперника. Его суждения рациональны, а рассудок остается холодным в самые непредсказуемые моменты. Перфекционист по жизни, Лауда рискует оправданно. Фильм обрисовывает роковую схватку двух непримиримых оппонентов, а так же их жизнь в дальнейшем...

Сэмпл: http://multi-up.com/1228599
Качество видео: BDRip (Исходник BDRemux 1080p)
Формат видео: AVI
Видео: XviD 73, 720x304, (2,35:1), 23,976 fps, 1951 Кбит/с, 8 бит
Аудио: Русский (АС3, 6 ch (Front: L C R, Side: L R, LFE), 48,0 KHz, 448 Kbps)

MediaInfo

Общее
Полное имя : D:\Фильмы на трекер\Гонка (драма, биография, спорт 2013 год).avi
Формат : AVI
Формат/Информация : Audio Video Interleave
Профиль формата : OpenDML
Размер файла : 2,06 Гбайт
Продолжительность : 2 ч. 2 м.
Общий поток : 2411 Кбит/сек
Программа кодирования : VirtualDubMod 1.5.10.2 (build 2540/release)
Библиотека кодирования : VirtualDubMod build 2540/release
Видео
Идентификатор : 0
Формат : MPEG-4 Visual
Профиль формата : Advanced Simple@L5
Параметр BVOP формата : 2
Параметр QPel формата : Нет
Параметр GMC формата : Без точки перехода
Параметр матрицы формата : Выборочная
Идентификатор кодека : XVID
Идентификатор кодека/Подсказка : XviD
Продолжительность : 2 ч. 2 м.
Битрейт : 1951 Кбит/сек
Ширина : 720 пикселей
Высота : 304 пикселя
Соотношение сторон : 2,35:1
Частота кадров : 23,976 (23976/1000) кадра/сек
Цветовое пространство : YUV
Субдискретизация насыщенности : 4:2:0
Битовая глубина : 8 бит
Тип развёртки : Прогрессивная
Метод сжатия : С потерями
Бит/(Пиксели*Кадры) : 0.372
Размер потока : 1,67 Гбайт (81%)
Библиотека кодирования : XviD 73
Аудио
Идентификатор : 1
Формат : AC-3
Формат/Информация : Audio Coding 3
Расширение режима : CM (complete main)
Параметр Endianness формата : Big
Идентификатор кодека : 2000
Продолжительность : 2 ч. 2 м.
Вид битрейта : Постоянный
Битрейт : 448 Кбит/сек
Каналы : 6 каналов
Расположение каналов : Front: L C R, Side: L R, LFE
Частота : 48,0 КГц
Частота кадров : 31,250 кадров/сек (1536 spf)
Метод сжатия : С потерями
Размер потока : 392 Мбайт (19%)
Выравнивание : Разделение по промежуткам
Продолжительность промежутка : 42 мс. (1,00 видеокадр)
Время предзагрузки промежутка : 500 мс.

Скриншот c названием фильма

Скриншоты

Если ваш рейтинг упадет ниже 0,3, вы не сможете скачивать торренты! Подробнее о рейтинге.

[cybertorrent.ru].t1788.torrent 
Торрент: Зарегистрирован [ 2019-04-05 15:58 ] · 0D3E9BE646227BD9BCAD2581F31414C18A85693D

Скачать .torrent

Скачать

11 KB

Статус: проверено
Скачан: 0 раз
Размер: 2,06 GB
terms.php
[Профиль] [ЛС]
Показать сообщения:    
Ответить на тему

Текущее время: 22-Апр 14:09

Часовой пояс: UTC ± 0



Вы не можете начинать темы
Вы не можете отвечать на сообщения
Вы не можете редактировать свои сообщения
Вы не можете удалять свои сообщения
Вы не можете голосовать в опросах
Вы не можете прикреплять файлы к сообщениям
Вы можете скачивать файлы